Loading...
Error

Боги, наверное, сошли с ума 1,2 / The Gods Must Be Crazy 1,2 (Джейми Юйс) [1980,1989 г., боевик, комедия, DVDRip] MVO + AVO [Иванов]

Статистика раздачи
Размер:  2,91 GB   |    Зарегистрирован:  3 года 11 месяцев   |    Скачан:  34 раза

Полного источника не было: 16 часов

Сидов:  0  |  0 KB/s  ]   Личеров:  0  |  0 KB/s  ]

* - сиды/пиры с внешних источников

   
 
Автор Сообщение

RG NewCinema 

09-Дек-2012 16:08

Боги, наверное, сошли с ума / The Gods Must Be Crazy


Год выпуска: 1980
Жанр: боевик, комедия
Страна: Ботсвана , ЮАР
Режиссер: Джейми Юйс
В ролях: Н!ксау, Сандра Принслу, Мариус Вейерс, Лоу Вервей, Майкл Тис, Ник Де Ягер, Fanyana H. Sidumo, Joe Seakatsie, Брайан О’Шонесси, Вера Блэкер
Сюжет фильма:
В дикие, девственные леса Африки с небес падает бутылка «Кока-колы». Здесь же обитает по-детски невинное племя бушменов. Вокруг столкновения двух цивилизаций происходит масса комедийных моментов.

  • Мировая премьера: 10 сентября 1980

|
Качество видео: DVDRip

Продолжительность: 01:48:49
Формат: AVI
Видео: XviD, 720x304, 1514 kbps
Аудио #1: русский, многоголосый закадровый [профессиональный], AC3 2.0, 192 kbps
Аудио #2: русский, одноголосый закадровый [Иванов], AC3 2.0, 192 kbps

Код:

Общее
Полное имя : G:ФильмыБоги_наверное_сошли_с_ума_1_2Боги_наверное_сошли_с_ума.avi
Формат : AVI
Формат/Информация : Audio Video Interleave
Размер файла : 1,46 Гбайт
Продолжительность : 1 ч. 48 м.
Общий поток : 1916 Кбит/сек
Программа кодирования : VirtualDubMod 1.5.10.2 (build 2540/release)
Библиотека кодирования : VirtualDubMod build 2540/release

Видео
Идентификатор : 0
Формат : MPEG-4 Visual
Профиль формата : Advanced Simple@L5
Параметр BVOP формата : 2
Параметр QPel формата : Нет
Параметр GMC формата : Без точки перехода
Параметр матрицы формата : Default (MPEG)
Режим смешивания : Сжатый битовый поток
Идентификатор кодека : DX50
Идентификатор кодека/Подсказка : DivX 5
Продолжительность : 1 ч. 48 м.
Битрейт : 1514 Кбит/сек
Ширина : 720 пикселей
Высота : 304 пикселя
Соотношение сторон : 2,35:1
Частота кадров : 29,970 кадров/сек
Цветовое пространство : YUV
Субдискретизация насыщенности : 4:2:0
Битовая глубина : 8 бит
Тип развёртки : Прогрессивная
Метод сжатия : С потерями
Бит/(Пиксели*Кадры) : 0.231
Размер потока : 1,15 Гбайт (79%)
Библиотека кодирования : XviD 1.2.1 (UTC 2008-12-04)

Аудио #1
Идентификатор : 1
Формат : AC-3
Формат/Информация : Audio Coding 3
Расширение режима : CM (complete main)
Параметр Endianness формата : Big
Идентификатор кодека : 2000
Продолжительность : 1 ч. 48 м.
Вид битрейта : Постоянный
Битрейт : 192 Кбит/сек
Каналы : 2 канала
Расположение каналов : Front: L R
Частота : 48,0 КГц
Битовая глубина : 16 бит
Метод сжатия : С потерями
Размер потока : 149 Мбайт (10%)
Выравнивание : Разделение по промежуткам
Продолжительность промежутка : 33 мс. (1,00 видеокадр)
Время предзагрузки промежутка : 500 мс.

Аудио #2
Идентификатор : 2
Формат : AC-3
Формат/Информация : Audio Coding 3
Расширение режима : CM (complete main)
Параметр Endianness формата : Big
Идентификатор кодека : 2000
Продолжительность : 1 ч. 48 м.
Вид битрейта : Постоянный
Битрейт : 192 Кбит/сек
Каналы : 2 канала
Расположение каналов : Front: L R
Частота : 48,0 КГц
Битовая глубина : 16 бит
Метод сжатия : С потерями
Размер потока : 149 Мбайт (10%)
Выравнивание : Разделение по промежуткам
Продолжительность промежутка : 33 мс. (1,00 видеокадр)
Время предзагрузки промежутка : 500 мс.
Семпл: http://multi-up.com/801036

picpicpic
Для увеличения картинки щелкните мышкой по превью




Боги, наверное, сошли с ума 2 / The Gods Must Be Crazy II


Год выпуска: 1985
Жанр: комедия
Страна: ЮАР , Ботсвана , США
Режиссер: Джейми Юйс
В ролях: Н!ксау, Лена Фаругия, Ганс Стридом, Эйрос, Надис, Эрик Бауэн, Treasure Tshabalala, Pierre Van Pletzen, Lourens Swanepoel, Ричард Лоринг
Сюжет фильма:
Бушмен Хико по-прежнему живет в африканской саванне, как испокон веков жили его предки. На этот раз ему опять приходится столкнуться с цивилизованным миром. Двое его маленьких детей случайно уезжают на грузовике белых браконьеров. Хико бросается на выручку, и, конечно же, попадает в водоворот комических ситуаций.

  • Мировая премьера: 26 июля 1989

|
Качество видео: DVDRip

Продолжительность: 01:37:30
Формат: AVI
Видео: XviD, 720x384 , 1738 kbps
Аудио #1: русский, многоголосый закадровый [профессиональный], AC3 2.0, 192 kbps
Аудио #2: русский, одноголосый закадровый [Иванов], AC3 2.0, 192 kbps

Код:

Общее
Полное имя : G:ФильмыБоги_наверное_сошли_с_ума_1_2Боги_наверное_сошли_с_ума_2.avi
Формат : AVI
Формат/Информация : Audio Video Interleave
Размер файла : 1,46 Гбайт
Продолжительность : 1 ч. 37 м.
Общий поток : 2141 Кбит/сек
Программа кодирования : VirtualDubMod 1.5.10.2 (build 2540/release)
Библиотека кодирования : VirtualDubMod build 2540/release

Видео
Идентификатор : 0
Формат : MPEG-4 Visual
Профиль формата : Advanced Simple@L5
Параметр BVOP формата : 2
Параметр QPel формата : Нет
Параметр GMC формата : Без точки перехода
Параметр матрицы формата : Default (MPEG)
Режим смешивания : Сжатый битовый поток
Идентификатор кодека : DX50
Идентификатор кодека/Подсказка : DivX 5
Продолжительность : 1 ч. 37 м.
Битрейт : 1739 Кбит/сек
Ширина : 720 пикселей
Высота : 384 пикселя
Соотношение сторон : 1,85:1
Частота кадров : 29,970 кадров/сек
Цветовое пространство : YUV
Субдискретизация насыщенности : 4:2:0
Битовая глубина : 8 бит
Тип развёртки : Прогрессивная
Метод сжатия : С потерями
Бит/(Пиксели*Кадры) : 0.210
Размер потока : 1,18 Гбайт (81%)
Библиотека кодирования : XviD 1.2.1 (UTC 2008-12-04)

Аудио #1
Идентификатор : 1
Формат : AC-3
Формат/Информация : Audio Coding 3
Расширение режима : CM (complete main)
Параметр Endianness формата : Big
Идентификатор кодека : 2000
Продолжительность : 1 ч. 37 м.
Вид битрейта : Постоянный
Битрейт : 192 Кбит/сек
Каналы : 2 канала
Расположение каналов : Front: L R
Частота : 48,0 КГц
Битовая глубина : 16 бит
Метод сжатия : С потерями
Размер потока : 134 Мбайт (9%)
Выравнивание : Разделение по промежуткам
Продолжительность промежутка : 33 мс. (1,00 видеокадр)
Время предзагрузки промежутка : 500 мс.

Аудио #2
Идентификатор : 2
Формат : AC-3
Формат/Информация : Audio Coding 3
Расширение режима : CM (complete main)
Параметр Endianness формата : Big
Идентификатор кодека : 2000
Продолжительность : 1 ч. 37 м.
Вид битрейта : Постоянный
Битрейт : 192 Кбит/сек
Каналы : 2 канала
Расположение каналов : Front: L R
Частота : 48,0 КГц
Битовая глубина : 16 бит
Метод сжатия : С потерями
Размер потока : 134 Мбайт (9%)
Выравнивание : Разделение по промежуткам
Продолжительность промежутка : 33 мс. (1,00 видеокадр)
Время предзагрузки промежутка : 500 мс.
Семпл: http://multi-up.com/801038

picpicpic
Для увеличения картинки щелкните мышкой по превью

Этот торрент недоступен для скачивания без регистрации, однако доступен по публичной magnet-ссылке (источники с публичных трекеров). Перед использованием ссылки прочтите, пожалуйста Пользовательское соглашение, а также как можно дольше оставайтесь на раздаче! Для того, чтобы скачать сам торрент-файл (который видит больше источников), а также для того, чтобы поблагодарить релизера, вам необходимо зарегистрироваться. Если регистрироваться лень - вы можете также попробовать скачать релиз по нашим партнерским ссылкам ниже.

[underverse.su].t22097.torrent
Трекер: Зарегистрирован   [ 09.12.2012 16:08 ]  

Статус: проверено (by garry at 09.12.2012 16:10)
Поблагодарили: 3 человека
Тип торрента: публичный - доступные источники с открытых трекеров: 
Размер: 2,91 GB (занимает 2/3 DVDR, для записи нужно 1 болванка DVDR/RW)
 
 

09-Дек-2012 16:11

Топик был перенесен из форума Зарубежное кино [DVDRip, Low-Res HDRip, и т.д.] в форум Классика зарубежного кино


gari
 

xtm59 

15-Авг-2013 09:43

Спасибо!

Яндекс.Метрика powered by Sphinx


В Н И М А Н И Е
Сайт не распространяет и не хранит электронные версии произведений, а лишь бесплатно и без коммерческой выгоды (не требуя взамен платы,
SMS и т.д.) предоставляет доступ к создаваемому пользователями каталогу ссылок на торрент-файлы, которые содержат только списки хеш-сумм.
Убедительная просьба с жалобами обращаться напрямую к пользователю, разместившему торрент файл.

Вверх