Loading...
Error

Соловей-Разбойник (Егор Баранов) [2012 г., боевик, комедия, криминал, BDRip] HQ Underverse

Статистика раздачи
Размер:  1,45 GB   |    Зарегистрирован:  3 года 11 месяцев   |    Скачан:  149 раз

Полного источника не было: 45 минут

Сидов:  0  |  0 KB/s  ]   Личеров:  0  |  0 KB/s  ]

* - сиды/пиры с внешних источников

   
 
Автор Сообщение

HQ Underverse 

08-Дек-2012 19:01

Соловей-Разбойник


Год выпуска: 2012
Жанр: боевик, комедия, криминал
Страна: Россия
Режиссер: Егор Баранов
В ролях: Иван Охлобыстин, Евгений Стычкин, Оксана Фандера, Игорь Жижикин, Сергей Бадюк, Александр Стриженов, Павел Прилучный, Мария Голубкина, Александр Сухинин, Михаил Горевой
Сюжет фильма:
История о дерзком романтике Соловьёве Севастьяне Григорьевиче, cтупившем по зову крови на лихую стезю русского разбоя. И пока спецслужбы во главе с секретным агентом Н7 пытаются ликвидировать банду Соловья-Разбойника, он, со свойственным ему драйвом и озорством, восстанавливает в родном краю справедливость. Но рано или поздно любой «сказке» приходит конец….

  • Мировая премьера: 22 ноября 2012
  • Российская премьера: 22 ноября 2012, «Парадиз»

Качество видео: BDRip [Соловей разбойник (2012) Blu-ray 1080p AVC DTS-HD 5.1 / HD Club]

Продолжительность: 01:31:39
Формат: AVI
Видео: XviD, 720x304, 1812 kbps
Аудио: русский, оригинал, AC3 5.1, 448 kbps

Код:

General
Complete name                            : D:\Video\Movies\Releases\Solovei-Razboinik.2012.BDRip.XviD.AC3.Rus.O.HQ.Underverse.avi
Format                                   : AVI
Format/Info                              : Audio Video Interleave
File size                                : 1.45 GiB
Duration                                 : 1h 31mn
Overall bit rate                         : 2 269 Kbps
Writing application                      : VirtualDubMod 1.5.10.2 (build 2540/release)
Writing library                          : VirtualDubMod build 2540/release

Video
ID                                       : 0
Format                                   : MPEG-4 Visual
Format profile                           : Advanced Simple@L5
Format settings, BVOP                    : 1
Format settings, QPel                    : No
Format settings, GMC                     : No warppoints
Format settings, Matrix                  : Custom
Muxing mode                              : Packed bitstream
Codec ID                                 : XVID
Codec ID/Hint                            : XviD
Duration                                 : 1h 31mn
Bit rate                                 : 1 812 Kbps
Width                                    : 720 pixels
Height                                   : 304 pixels
Display aspect ratio                     : 2.35:1
Frame rate                               : 24.000 fps
Color space                              : YUV
Chroma subsampling                       : 4:2:0
Bit depth                                : 8 bits
Scan type                                : Progressive
Compression mode                         : Lossy
Bits/(Pixel*Frame)                       : 0.345
Stream size                              : 1.16 GiB (80%)
Writing library                          : XviD 64

Audio
ID                                       : 1
Format                                   : AC-3
Format/Info                              : Audio Coding 3
Mode extension                           : CM (complete main)
Format settings, Endianness              : Big
Codec ID                                 : 2000
Duration                                 : 1h 31mn
Bit rate mode                            : Constant
Bit rate                                 : 448 Kbps
Channel(s)                               : 6 channels
Channel positions                        : Front: L C R, Side: L R, LFE
Sampling rate                            : 48.0 KHz
Bit depth                                : 16 bits
Compression mode                         : Lossy
Stream size                              : 294 MiB (20%)
Alignment                                : Split accross interleaves
Interleave, duration                     : 42 ms (1.00 video frame)
Interleave, preload duration             : 500 ms
Title                                    : Solovei-Razboinik.2012.AC3.Rus.O.448.kbps.HQ.Underverse.ac3
Семпл: http://multi-up.com/800950

Релиз группы:

pic pic pic
Для увеличения картинки щелкните мышкой по превью

Этот торрент недоступен для скачивания без регистрации, однако доступен по публичной magnet-ссылке (источники с публичных трекеров). Перед использованием ссылки прочтите, пожалуйста Пользовательское соглашение, а также как можно дольше оставайтесь на раздаче! Для того, чтобы скачать сам торрент-файл (который видит больше источников), а также для того, чтобы поблагодарить релизера, вам необходимо зарегистрироваться. Если регистрироваться лень - вы можете также попробовать скачать релиз по нашим партнерским ссылкам ниже.

[underverse.su].t22070.torrent
Трекер: Зарегистрирован   [ 08.12.2012 22:50 ]  

Статус: проверено (by garry at 08.12.2012 23:00)
Поблагодарили: 11 человек
Тип торрента: публичный - доступные источники с открытых трекеров: 
Размер: 1,45 GB (занимает 1/3 DVDR, для записи нужно 1 болванка DVDR/RW)
 
 
Похожие темы
Форум Тема Автор Торрент Отв. Посл. сооб.
Наше кино [DVDRip, Low-Res HDRip, и т.д.] Соловей-Разбойник (Егор Баранов) [2012 г., Боевик, комедия, приключения, HDRip] 90ytr90
12 | 0

0 | 573

42

07.12.2012 17:16

Наше кино [DVDRip, Low-Res HDRip, и т.д.] Соловей-Разбойник (Егор Баранов) [2012 г., боевик, комедия, криминал, BDRip-AVC] TERRAN
26 | 0

2 | 1400

81

29.12.2012 15:25

Наше кино [DVD / HDDVD / BD / Remux] Соловей-Разбойник (Егор Баранов) [2012 г., боевик, комедия, криминал, Blu-Ray 1080p] eXtatik
0 | 0

0 | 805

9

07.12.2012 20:37

Наше кино [DVD / HDDVD / BD / Remux] Соловей-Разбойник (Егор Баранов) [2012 г., Боевик, комедия, приключения, DVD9] R5 90ytr90
1 | 0

0 | 875

14

07.12.2012 21:39

Наше кино [HDDVDRip / BDRip / WEB-DL / HDTV 1080/720р] Соловей-Разбойник (Егор Баранов) [2012 г., Боевик, комедия, приключения, BDRip 720p] 90ytr90
1 | 0

0 | 776

45

07.12.2012 20:39



Последний раз редактировалось: HQ Underverse (08.12.2012 22:50), всего редактировалось 1 раз

08-Дек-2012 22:50

Топик был перенесен из форума Анонсы группы HQ Underverse в форум Наше кино HQ


HQ Underverse
 

Яндекс.Метрика powered by Sphinx


В Н И М А Н И Е
Сайт не распространяет и не хранит электронные версии произведений, а лишь бесплатно и без коммерческой выгоды (не требуя взамен платы,
SMS и т.д.) предоставляет доступ к создаваемому пользователями каталогу ссылок на торрент-файлы, которые содержат только списки хеш-сумм.
Убедительная просьба с жалобами обращаться напрямую к пользователю, разместившему торрент файл.

Вверх