Loading...
Error

Завтрак у Тиффани / Breakfast at Tiffany`s (Блейк Эдвардс) [1961 г., драма, мелодрама, комедия, HDTVRip] MVO

Статистика раздачи
Размер:  1,46 GB   |    Зарегистрирован:  3 года 11 месяцев   |    Скачан:  19 раз

Полного источника не было: 28 дней

Сидов:  0  |  0 KB/s  ]   Личеров:  0  |  0 KB/s  ]

* - сиды/пиры с внешних источников

   
 
Автор Сообщение

Jimmy Пол:Муж

07-Дек-2012 21:06

Завтрак у Тиффани / Breakfast at Tiffany`s

Год выпуска: 1961
Жанр: драма, мелодрама, комедия
Страна: США
Режиссер: Блейк Эдвардс
В ролях: Одри Хепберн, Джордж Пеппард, Патриция Нил, Бадди Эбсен, Мартин Болсам, Хосе Луис де Вильялонга, Джон МакГайвер, Алан Рид, Дороти Уитни, Беверли Пауэрс
Сюжет фильма:
Столица сильных мира сего и уютное гнездышко очаровательной Холли Голайтли. Кто-то назовет ее девицей по вызову, кто-то — авантюристкой.

Одни подумают, что она хитра как лисица. Другие решат, что глупа как пробка. Холли это безразлично. Она наслаждается жизнью, меняет наряды и ищет богатого жениха. Но однажды этажом выше появляется симпатичный молодой человек…

  • Мировая премьера: 5 октября 1961

Качество видео: HDTVRip

Продолжительность: 01:50:02
Формат: avi
Видео: XviD, 720x400, 1436 kbps
Аудио: русский, многоголосый закадровый [профессиональный], AC3 5.1, 448 kbps

Код:

General
Complete name                    : F:\Under\blablabla\_на время конкурса\Breakfast.at.Tiffany's.1961_[*другой трекер*].avi
Format                           : AVI
Format/Info                      : Audio Video Interleave
File size                        : 1.46 GiB
Duration                         : 1h 50mn
Overall bit rate                 : 1 895 Kbps
Movie name                       : Завтрак у Тиффани / Breakfast at Tiffany's
Director                         : zim2001
Writing application              : VirtualDubMod 1.5.10.2 (build 2540/release)
Copyright                        : *другой трекер*

Video
ID                               : 0
Format                           : MPEG-4 Visual
Format profile                   : Streaming Video@L1
Format settings, BVOP            : Yes
Format settings, QPel            : No
Format settings, GMC             : No warppoints
Format settings, Matrix          : Custom
Codec ID                         : XVID
Codec ID/Hint                    : XviD
Duration                         : 1h 50mn
Bit rate                         : 1 437 Kbps
Width                            : 720 pixels
Height                           : 400 pixels
Display aspect ratio             : 16/9
Frame rate                       : 25.000 fps
Resolution                       : 24 bits
Colorimetry                      : 4:2:0
Scan type                        : Progressive
Bits/(Pixel*Frame)               : 0.200
Stream size                      : 1.10 GiB (76%)
Writing library                  : XviD 1.2.1 (UTC 2008-12-04)

Audio
ID                               : 1
Format                           : AC-3
Format/Info                      : Audio Coding 3
Codec ID                         : 2000
Duration                         : 1h 50mn
Bit rate mode                    : Constant
Bit rate                         : 448 Kbps
Channel(s)                       : 6 channels
Channel positions                : Front: L C R, Surround: L R, LFE
Sampling rate                    : 48.0 KHz
Stream size                      : 353 MiB (24%)
Alignment                        : Split accross interleaves
Interleave, duration             : 40 ms (1.00 video frame)
Interleave, preload duration     : 500 ms

picpicpicpicpic
Для увеличения картинки щелкните мышкой по превью

Этот торрент недоступен для скачивания без регистрации, однако доступен по публичной magnet-ссылке (источники с публичных трекеров). Перед использованием ссылки прочтите, пожалуйста Пользовательское соглашение, а также как можно дольше оставайтесь на раздаче! Для того, чтобы скачать сам торрент-файл (который видит больше источников), а также для того, чтобы поблагодарить релизера, вам необходимо зарегистрироваться. Если регистрироваться лень - вы можете также попробовать скачать релиз по нашим партнерским ссылкам ниже.

[underverse.su].t22020.torrent
Трекер: Зарегистрирован   [ 07.12.2012 21:06 ]  

Статус: проверено (by garry at 07.12.2012 21:11)
Поблагодарили: 2 человека
Тип торрента: публичный - доступные источники с открытых трекеров: 
Размер: 1,46 GB (занимает 1/3 DVDR, для записи нужно 1 болванка DVDR/RW)
 
 
Похожие темы
Форум Тема Автор Торрент Отв. Посл. сооб.
T Наше кино [DVDRip, Low-Res HDRip, и т.д.] Завтрак у папы (Мария Кравченко) [2015 г., комедия, WEB-DLRip] makkol
2660 | 42

0 | 393

33

20.07.2016 23:03

T Наше кино [DVDRip, Low-Res HDRip, и т.д.] Завтрак у папы (Мария Кравченко) [2016 г., комедия, WEB-DLRip-AVC] Original (iTunes) 90ytr90
18 | 1

0 | 661

34

21.07.2016 19:55

T Наше кино [HDDVDRip / BDRip / WEB-DL / HDTV 1080/720р] Завтрак у папы (Мария Кравченко) [2015 г., комедия, WEB-DL 1080p] makkol
13 | 2

0 | 332

15

20.07.2016 23:14


Яндекс.Метрика powered by Sphinx


В Н И М А Н И Е
Сайт не распространяет и не хранит электронные версии произведений, а лишь бесплатно и без коммерческой выгоды (не требуя взамен платы,
SMS и т.д.) предоставляет доступ к создаваемому пользователями каталогу ссылок на торрент-файлы, которые содержат только списки хеш-сумм.
Убедительная просьба с жалобами обращаться напрямую к пользователю, разместившему торрент файл.

Вверх