Loading...
Error

Как украсть миллион / How to Steal a Million (Уильям Уайлер) [1966 г., мелодрама, комедия, криминал, HDTVRip] Dub + DVO

Статистика раздачи
Размер:  1,46 GB   |    Зарегистрирован:  3 года 11 месяцев   |    Скачан:  13 раз

Полного источника не было: 22 дня

Сидов:  0  |  0 KB/s  ]   Личеров:  0  |  0 KB/s  ]

* - сиды/пиры с внешних источников

   
 
Автор Сообщение

Jimmy Пол:Муж

07-Дек-2012 20:44

Как украсть миллион / How to Steal a Million

Год выпуска: 1966
Жанр: мелодрама, комедия, криминал
Страна: США
Режиссер: Уильям Уайлер
В ролях: Одри Хепберн, Питер О’Тул, Эли Уоллах, Хью Гриффит, Шарль Буайе, Фернан Гравей, Марсель Далио, Жак Марен, Мусташ, Роже Тревиль
Сюжет фильма:
Действие происходит в Париже. Молодая девушка, дочь миллионера, втайне промышляющего подделкой произведений искусства, и преступник, должны выкрасть с выставки изобразительного искусства в музее один из «шедевров» отца девушки, чтобы спасти его от разоблачения.

  • Мировая премьера: 13 июля 1966


Качество видео: HDTVRip

Продолжительность: 01:58:19
Формат: avi
Видео: XviD, 720x304, 1372 kbps
Аудио #1: русский, дублированный, AC3 2.0, 192 kbps
Аудио #2: русский, двухголосый закадровый [профессиональный], AC3 2.0, 192 kbps

Код:

General
Complete name                    : F:\Under\blablabla\_на время конкурса\Kak_ukrast_million.avi
Format                           : AVI
Format/Info                      : Audio Video Interleave
File size                        : 1.46 GiB
Duration                         : 1h 58mn
Overall bit rate                 : 1 771 Kbps
Writing application              : VirtualDubMod 1.5.10.2 (build 2540/release)
Writing library                  : VirtualDubMod build 2540/release

Video
ID                               : 0
Format                           : MPEG-4 Visual
Format profile                   : Streaming Video@L1
Format settings, BVOP            : Yes
Format settings, QPel            : No
Format settings, GMC             : No warppoints
Format settings, Matrix          : Custom
Muxing mode                      : Packed bitstream
Codec ID                         : XVID
Codec ID/Hint                    : XviD
Duration                         : 1h 58mn
Bit rate                         : 1 373 Kbps
Width                            : 720 pixels
Height                           : 304 pixels
Display aspect ratio             : 2.35
Frame rate                       : 25.000 fps
Resolution                       : 24 bits
Colorimetry                      : 4:2:0
Scan type                        : Progressive
Bits/(Pixel*Frame)               : 0.251
Stream size                      : 1.13 GiB (78%)
Writing library                  : XviD 1.2.1 (UTC 2008-12-04)

Audio #1
ID                               : 1
Format                           : AC-3
Format/Info                      : Audio Coding 3
Codec ID                         : 2000
Duration                         : 1h 58mn
Bit rate mode                    : Constant
Bit rate                         : 192 Kbps
Channel(s)                       : 2 channels
Channel positions                : L R
Sampling rate                    : 48.0 KHz
Stream size                      : 162 MiB (11%)
Alignment                        : Split accross interleaves
Interleave, duration             : 40 ms (1.00 video frame)
Interleave, preload duration     : 500 ms

Audio #2
ID                               : 2
Format                           : AC-3
Format/Info                      : Audio Coding 3
Codec ID                         : 2000
Duration                         : 1h 58mn
Bit rate mode                    : Constant
Bit rate                         : 192 Kbps
Channel(s)                       : 2 channels
Channel positions                : L R
Sampling rate                    : 48.0 KHz
Stream size                      : 162 MiB (11%)
Alignment                        : Split accross interleaves
Interleave, duration             : 40 ms (1.00 video frame)
Interleave, preload duration     : 500 ms

picpicpicpic
Для увеличения картинки щелкните мышкой по превью

Этот торрент недоступен для скачивания без регистрации, однако доступен по публичной magnet-ссылке (источники с публичных трекеров). Перед использованием ссылки прочтите, пожалуйста Пользовательское соглашение, а также как можно дольше оставайтесь на раздаче! Для того, чтобы скачать сам торрент-файл (который видит больше источников), а также для того, чтобы поблагодарить релизера, вам необходимо зарегистрироваться. Если регистрироваться лень - вы можете также попробовать скачать релиз по нашим партнерским ссылкам ниже.

[underverse.su].t22019.torrent
Трекер: Зарегистрирован   [ 07.12.2012 20:44 ]  

Статус: проверено (by garry at 07.12.2012 22:21)
Поблагодарили: 3 человека
Тип торрента: публичный - доступные источники с открытых трекеров: 
Размер: 1,46 GB (занимает 0,33 DVDR, для записи нужно 1 болванка DVDR/RW)
 
 
Похожие темы
Форум Тема Автор Торрент Отв. Посл. сооб.
Зарубежное кино [DVDRip, Low-Res HDRip, и т.д.] Как украсть небоскреб / Tower Heist (Бретт Рэтнер / Brett Ratner) [2011 г., комедия, криминал, HDRip] [лицензия] 90ytr90
1 | 1

2 | 731

45

05.05.2012 09:33

Зарубежное кино [DVDRip, Low-Res HDRip, и т.д.] Как украсть миллион / How to Steal a Million (Уильям Уайлер / William Wyler) [1966 г., мелодрама, комедия, криминал, HDTVRip] Dub + DVO + Original + Sub (Rus, Eng) 90ytr90
0 | 0

0 | 1704

12

14.12.2013 09:44

T Зарубежное кино [DVDRip, Low-Res HDRip, и т.д.] Как украсть бриллиант / Love Punch (Джоэл Хопкинс / Joel Hopkins) [2013 г., комедия, HDRip] Dub (чистый звук) 90ytr90
48 | 0

0 | 399

25

19.11.2014 16:41

T Зарубежное кино [DVDRip, Low-Res HDRip, и т.д.] Как украсть бриллиант / Love Punch (Джоэл Хопкинс / Joel Hopkins) [2013 г., комедия, HDRip] Dub (iTunes) 90ytr90
2 | 0

0 | 364

13

27.11.2014 20:42

Зарубежное кино HQ Как украсть небоскреб / Tower Heist (Бретт Рэтнер) [2011 г., комедия, криминал, HDRip] (Rus, Eng) HQ Underverse HQ Underverse
0 | 0

0 | 715

21

06.03.2012 11:54

T Зарубежное кино [HDDVDRip / BDRip / WEB-DL / HDTV 1080/720р] Как украсть бриллиант / Love Punch (Джоэл Хопкинс / Joel Hopkins) [2013 г., комедия, BDRip 720p] Dub (чистый звук) + Eng + Sub (Eng) 90ytr90
17 | 0

0 | 373

12

19.11.2014 16:47

T Зарубежное кино [HDDVDRip / BDRip / WEB-DL / HDTV 1080/720р] Как украсть бриллиант / Love Punch (Джоэл Хопкинс / Joel Hopkins) [2013 г., комедия, BDRip 720p] Dub (iTunes) + Eng + Sub (Eng) 90ytr90
4 | 0

0 | 344

8

28.11.2014 07:07


Яндекс.Метрика powered by Sphinx


В Н И М А Н И Е
Сайт не распространяет и не хранит электронные версии произведений, а лишь бесплатно и без коммерческой выгоды (не требуя взамен платы,
SMS и т.д.) предоставляет доступ к создаваемому пользователями каталогу ссылок на торрент-файлы, которые содержат только списки хеш-сумм.
Убедительная просьба с жалобами обращаться напрямую к пользователю, разместившему торрент файл.

Вверх