Loading...
Error

Последние каникулы 2: Весенняя лихорадка / Cabin Fever 2: Spring Fever (Тай Уэст) [2009 г., ужасы, триллер, HDRip] MVO

Статистика раздачи
Размер:  1,37 GB   |    Зарегистрирован:  3 года 11 месяцев   |    Скачан:  14 раз

Полного источника не было: 27 дней

Сидов:  0  |  0 KB/s  ]   Личеров:  0  |  0 KB/s  ]

* - сиды/пиры с внешних источников

   
 
Автор Сообщение

DarkAngel Пол:Муж

07-Дек-2012 16:18

Последние каникулы 2 / Cabin Fever 2: Spring Fever


Год выпуска: 2009
Жанр: ужасы, триллер
Страна: США
Режиссер: Тай Уэст
В ролях: Ной Сеган, Райдер Стронг, Алекси Вассер, Расти Келли, Марк Сентер, Александр Айзиа Томас, Джузеппе Эндрюс, Майкл Боуэн, Риган Дил, Марк Борхардт
Сюжет фильма:
Лихорадка вырывается из лесной глуши и попадает в маленький городок Спрингфилд в день выпускного бала. Подростки готовятся проститься со школой, детством и невинностью, но им предстоит лишиться большего, ведь в город прибывает команда зачистки.

  • Мировая премьера: 21 августа 2009

Качество видео: HDRip

Продолжительность: 01:25:59
Формат: AVI
Видео: XviD, 720x304 (2.37:1), 1818 kbps
Аудио: русский, многоголосый закадровый [профессиональный], AC3 2.0, 448 kbps

Код:

General
Complete name : C:\Documents and Settings\Admin\Мои документы\Downloads\Lihoradka.Vesennee.obostrenie.2009.P.HDRip.IRONCLUB.avi
Format : AVI
Format/Info : Audio Video Interleave
File size : 1.37 GiB
Duration : 1h 25mn
Overall bit rate : 2 276 Kbps
Movie name : Lihoradka.Vesennee.obostrenie.2009.P.HDRip.IRONCLUB
Director : IRONCLUB
Genre : Horror | Thriller
Writing application : VirtualDubMod 1.5.10.2 (build 2540/release)
Original source form/Name : Movie
Copyright :

Video
ID : 0
Format : MPEG-4 Visual
Format profile : Advanced Simple@L5
Format settings, BVOP : Yes
Format settings, QPel : No
Format settings, GMC : No warppoints
Format settings, Matrix : Default (MPEG)
Muxing mode : Packed bitstream
Codec ID : XVID
Codec ID/Hint : XviD
Duration : 1h 25mn
Bit rate : 1 818 Kbps
Width : 720 pixels
Height : 304 pixels
Display aspect ratio : 2.35:1
Frame rate : 24.000 fps
Resolution : 8 bits
Colorimetry : 4:2:0
Scan type : Progressive
Bits/(Pixel*Frame) : 0.346
Stream size : 1.09 GiB (80%)
Writing library : XviD 1.2.1 (UTC 2008-12-04)

Audio
ID : 1
Format : AC-3
Format/Info : Audio Coding 3
Codec ID : 2000
Duration : 1h 25mn
Bit rate mode : Constant
Bit rate : 448 Kbps
Channel(s) : 2 channels
Channel positions : L R
Sampling rate : 48.0 KHz
Stream size : 276 MiB (20%)
Alignment : Split accross interleaves
Interleave, duration : 42 ms (1.00 video frame)
Interleave, preload duration : 500 ms
picpicpic
Для увеличения картинки щелкните мышкой по превью

Этот торрент недоступен для скачивания без регистрации, однако доступен по публичной magnet-ссылке (источники с публичных трекеров). Перед использованием ссылки прочтите, пожалуйста Пользовательское соглашение, а также как можно дольше оставайтесь на раздаче! Для того, чтобы скачать сам торрент-файл (который видит больше источников), а также для того, чтобы поблагодарить релизера, вам необходимо зарегистрироваться. Если регистрироваться лень - вы можете также попробовать скачать релиз по нашим партнерским ссылкам ниже.

[underverse.su].t21998.torrent
Трекер: Зарегистрирован   [ 07.12.2012 16:18 ]  

Статус: проверено (by garry at 07.12.2012 18:17)
Поблагодарили: 1 человек
Тип торрента: публичный - доступные источники с открытых трекеров: 
Размер: 1,37 GB (занимает 0,31 DVDR, для записи нужно 1 болванка DVDR/RW)
 
 
Похожие темы
Форум Тема Автор Торрент Отв. Посл. сооб.
Зарубежное кино [DVDRip, Low-Res HDRip, и т.д.] Последние дни Эммы Бланк / De laatste dagen van Emma Blank (Алекс Ван Вармердам) [2009 г., черная комедия, драма, DVDRip] Joey
1 | 0

6 | 2045

43

30.08.2012 20:56

Зарубежное кино [DVDRip, Low-Res HDRip, и т.д.] Последние добрые слова / Last Kind Words (Кевин Баркер) [2012 г., триллер, драма, детектив, WEB-DLRip] DVO [DeadSno & den904] RG NewCinema
11 | 0

0 | 903

11

03.06.2013 08:00

Зарубежное кино [DVDRip, Low-Res HDRip, и т.д.] Последние дни на Марсе / The Last Days on Mars (Рори Робинсон) [2013 г., фантастика, триллер, WEB-DLRip] VO (den904) + Original 90ytr90
0 | 3

0 | 1867

62

05.11.2013 14:07

Зарубежное кино [DVDRip, Low-Res HDRip, и т.д.] Последние дни на Марсе / The Last Days on Mars (Рори Робинсон) [2013 г., фантастика, триллер, HDRip] VO (den904) 90ytr90
11 | 0

0 | 2352

112

20.02.2014 09:41

Зарубежное кино [DVDRip, Low-Res HDRip, и т.д.] Последние дни на Марсе / The Last Days on Mars (Рори Робинсон) [2013 г., Ужасы, Фантастика, Триллер, BDRip-AVC] MVO (RUS) + VO (den904) + Original (ENG) + Subs (RUS, ENG) Ведьмочка
9 | 0

0 | 672

7

30.08.2014 01:36

Зарубежное кино [DVDRip, Low-Res HDRip, и т.д.] Последние дни на Марсе / The Last Days on Mars (Рори Робинсон) [2013 г., Ужасы, Фантастика, Триллер, BDRip-AVC] MVO (RUS) + Original (ENG) + Subs (RUS, ENG) Ведьмочка
3 | 3

0 | 874

31

30.08.2014 01:41

T Зарубежное кино [DVDRip, Low-Res HDRip, и т.д.] Последние часы / These Final Hours (Зак Хилдитч / Zak Hilditch) [2013 г., фантастика, триллер, драма, HDRip] MVO (чистый звук) 90ytr90
3 | 0

0 | 617

29

02.01.2015 19:26

T Зарубежное кино [DVDRip, Low-Res HDRip, и т.д.] Последние часы / These Final Hours (Зак Хилдитч / Zak Hilditch) [2013 г., фантастика, триллер, драма, HDRip-AVC] MVO (чистый звук) + Original (Eng) 90ytr90
59 | 0

0 | 617

18

02.01.2015 19:36

T Зарубежное кино [DVDRip, Low-Res HDRip, и т.д.] Последние рыцари / Last Knights (Казуаки Кирия) [2015 г., боевик, приключения, WEB-DLRip] Dub [Чистый звук] Паукан
23 | 0

0 | 983

86

07.04.2015 12:33

T Зарубежное кино [DVDRip, Low-Res HDRip, и т.д.] Последние рыцари / Last Knights (Казуаки Кирия) [2015 г., боевик, приключения, WEB-DLRip] Dub [Чистый звук] + Original Паукан
5 | 0

0 | 774

35

07.04.2015 12:37



Последний раз редактировалось: DarkAngel (07.12.2012 21:49), всего редактировалось 1 раз

Яндекс.Метрика powered by Sphinx


В Н И М А Н И Е
Сайт не распространяет и не хранит электронные версии произведений, а лишь бесплатно и без коммерческой выгоды (не требуя взамен платы,
SMS и т.д.) предоставляет доступ к создаваемому пользователями каталогу ссылок на торрент-файлы, которые содержат только списки хеш-сумм.
Убедительная просьба с жалобами обращаться напрямую к пользователю, разместившему торрент файл.

Вверх