Loading...
Error

Боец поневоле / Forced to Fight (Джонас Куастел) [2011 г., боевик, HDRip] MVO

Статистика раздачи
Размер:  1,46 GB   |    Зарегистрирован:  4 года   |    Скачан:  17 раз

Полного источника не было: 10 месяцев

Сидов:  0  |  0 KB/s  ]   Личеров:  0  |  0 KB/s  ]

* - сиды/пиры с внешних источников

   
 
Автор Сообщение

DarkAngel Пол:Муж

07-Дек-2012 16:01

Боец поневоле / Forced to Fight


Год выпуска: 2011
Жанр: боевик
Страна: Канада
Режиссер: Джонас Куастел
В ролях: Vladimir Comorovschi, Гэри Дэниелс, Брайан Флаэрти, Филип Грэйнджер, Claudiu-Cristian Prisecaru, Михай Радуцу, Арки Аломар, Флорин Роата, Корбин Томас, Александра Уивер
Сюжет фильма:
Строптивый участник боёв без правил идёт наперекор воле босса, выигрывает схватку и сбегает с деньгами. По излишней самоуверенности он полагает, что мафию можно обмануть. Но это не так. Не успевает он выйти на улицу, как попадает в лапы громил и едва не погибает. На нем висит большой долг, который хозяин предлагает оплатить старшему брату…


Качество видео: HDRip

Продолжительность: 01:40:01
Формат: AVI
Видео: XviD, 720x400 (1.80:1), ~1885 kbps
Аудио: русский, многоголосый закадровый [профессиональный], AC3 2.0, 192 kbps

Код:

General
Complete name : D:КиноBoec.ponevole.2011.P.HDRip.avi
Format : AVI
Format/Info : Audio Video Interleave
File size : 1.46 GiB
Duration : 1h 40mn
Overall bit rate : 2 087 Kbps
Writing application : VirtualDubMod 1.5.10.2 (build 2540/release)
Writing library : VirtualDubMod build 2540/release

Video
ID : 0
Format : MPEG-4 Visual
Format profile : Advanced Simple@L5
Format settings, BVOP : 2
Format settings, QPel : No
Format settings, GMC : No warppoints
Format settings, Matrix : Default (MPEG)
Muxing mode : Packed bitstream
Codec ID : XVID
Codec ID/Hint : XviD
Duration : 1h 40mn
Bit rate : 1 886 Kbps
Width : 720 pixels
Height : 400 pixels
Display aspect ratio : 16:9
Frame rate : 23.976 fps
Color space : YUV
Chroma subsampling : 4:2:0
Bit depth : 8 bits
Scan type : Progressive
Compression mode : Lossy
Bits/(Pixel*Frame) : 0.273
Stream size : 1.32 GiB (90%)
Writing library : XviD 1.2.1 (UTC 2008-12-04)

Audio
ID : 1
Format : AC-3
Format/Info : Audio Coding 3
Mode extension : CM (complete main)
Format settings, Endianness : Big
Codec ID : 2000
Duration : 1h 39mn
Bit rate mode : Constant
Bit rate : 192 Kbps
Channel(s) : 2 channels
Channel positions : Front: L R
Sampling rate : 48.0 KHz
Bit depth : 16 bits
Compression mode : Lossy
Stream size : 137 MiB (9%)
Alignment : Split accross interleaves
Interleave, duration : 42 ms (1.00 video frame)
Interleave, preload duration : 500 ms
Семпл: http://multi-up.com/799850

picpicpic
Для увеличения картинки щелкните мышкой по превью

Этот торрент недоступен для скачивания без регистрации, однако доступен по публичной magnet-ссылке (источники с публичных трекеров). Перед использованием ссылки прочтите, пожалуйста Пользовательское соглашение, а также как можно дольше оставайтесь на раздаче! Для того, чтобы скачать сам торрент-файл (который видит больше источников), а также для того, чтобы поблагодарить релизера, вам необходимо зарегистрироваться. Если регистрироваться лень - вы можете также попробовать скачать релиз по нашим партнерским ссылкам ниже.

[underverse.su].t21994.torrent
Трекер: Зарегистрирован   [ 07.12.2012 16:01 ]  

Статус: проверено (by garry at 07.12.2012 17:21)
Поблагодарили: 2 человека
Тип торрента: публичный - доступные источники с открытых трекеров: 
Размер: 1,46 GB (занимает 1/3 DVDR, для записи нужно 1 болванка DVDR/RW)
 
 
Похожие темы
Форум Тема Автор Торрент Отв. Посл. сооб.
Зарубежное кино [DVDRip, Low-Res HDRip, и т.д.] Боец поневоле / Forced to Fight (Джонас Куастел) [2011 г., боевик, HDRip] MVO (НТВ+) 90ytr90
3 | 0

0 | 1016

4

15.12.2012 10:31

Зарубежное кино [DVDRip, Low-Res HDRip, и т.д.] Боец поневоле / Forced to Fight (Джонас Куастел) [2011, Боевик, BDRip-AVC] MVO + Original + Sub (eng) Garnett
27 | 1

1 | 1022

2

29.12.2012 13:48

vitalii11047Пол:Муж

08-Дек-2012 04:59

:beer:

Яндекс.Метрика powered by Sphinx


В Н И М А Н И Е
Сайт не распространяет и не хранит электронные версии произведений, а лишь бесплатно и без коммерческой выгоды (не требуя взамен платы,
SMS и т.д.) предоставляет доступ к создаваемому пользователями каталогу ссылок на торрент-файлы, которые содержат только списки хеш-сумм.
Убедительная просьба с жалобами обращаться напрямую к пользователю, разместившему торрент файл.

Вверх