Loading...
Error

Сабрина / Sabrina (Билли Уайлдер) [1954 г., драма, мелодрама, комедия, HDTVRip-AVC] MVO

Статистика раздачи
Размер:  2,19 GB   |    Зарегистрирован:  4 года   |    Скачан:  5 раз

Полного источника не было: 4 месяца 12 дней

Сидов:  0  |  0 KB/s  ]   Личеров:  0  |  0 KB/s  ]

* - сиды/пиры с внешних источников

   
 
Автор Сообщение

Jimmy Пол:Муж

07-Дек-2012 15:49

Сабрина / Sabrina

Год выпуска: 1954
Жанр: драма, мелодрама, комедия
Страна: США
Режиссер: Билли Уайлдер
В ролях: Хамфри Богарт, Одри Хепберн, Уильям Холден, Уолтер Хэмпден, Джон Уильямс, Марта Хайер, Джоан Вос, Марсель Далио, Марсель Хиллэр, Нелла Уолкер
Сюжет фильма:
В роскошной усадьбе на западном берегу Лонг-Айленда обитало семейство миллионеров Лэрраби. Отец, мать и два сына. Старший — Лайнус — умный, младший — Дэвид — красивый. В Дэвида была безответно влюблена юная дочь шофера семьи Сабрина. Чтобы «излечить» дочь от любовной лихорадки, отец отправляет её в Париж в школу поваров. Через несколько лет домой возвращается изысканная утонченная красавица. Её чувства не прошли, но теперь уже и Дэвид покорен ею. Семейные планы расширения бизнеса за счет удачной женитьбы непутёвого сына под угрозой… Старший брат готов мужественно принять удар на себя и поухаживать за навязчивой девчонкой…

  • Мировая премьера: 9 сентября 1954


Качество видео: HDTVRip-AVC

Продолжительность: 01:48:53
Формат: mkv
Видео: x264, 944x704, 2433 kbps
Аудио #1: русский, многоголосый закадровый [профессиональный], AC3 2.0, 192 kbps
Аудио #2: английский, оригинал, AC3 2.0, 192 kbps
Субтитры #1: вшитые отключаемые, S_TEXT/UTF8, русский
Субтитры #2: вшитые отключаемые, S_TEXT/UTF8, английский

Код:

General
Complete name                    : F:\Under\blablabla\_на время конкурса\Sabrina.1954.HDTVRip.x264.mkv
Format                           : Matroska
File size                        : 2.19 GiB
Duration                         : 1h 48mn
Overall bit rate                 : 2 875 Kbps
Movie name                       : Sabrina.1954.HDTVRip.x264.mkv [by pan29]
Encoded date                     : UTC 2011-07-21 02:28:00
Writing application              : mkvmerge v3.2.0 ('Beginnings') built on Feb 12 2010 16:46:17
Writing library                  : libebml v0.7.9 + libmatroska v0.8.1

Video
ID                               : 1
Format                           : AVC
Format/Info                      : Advanced Video Codec
Format profile                   : High@L4.1
Format settings, CABAC           : Yes
Format settings, ReFrames        : 11 frames
Muxing mode                      : Container profile=Unknown@4.1
Codec ID                         : V_MPEG4/ISO/AVC
Duration                         : 1h 48mn
Bit rate                         : 2 434 Kbps
Nominal bit rate                 : 2 489 Kbps
Width                            : 944 pixels
Height                           : 704 pixels
Display aspect ratio             : 4/3
Frame rate                       : 25.000 fps
Resolution                       : 24 bits
Colorimetry                      : 4:2:0
Scan type                        : Progressive
Bits/(Pixel*Frame)               : 0.146
Stream size                      : 1.85 GiB (85%)
Title                            : Sabrina.1954
Writing library                  : x264 core 115 r2008 4c552d8
Encoding settings                : cabac=1 / ref=11 / deblock=1:-1:-1 / analyse=0x3:0x113 / me=umh / subme=9 / psy=1 / psy_rd=1.00:0.15 / mixed_ref=1 / me_range=24 / chroma_me=1 / trellis=2 / 8x8dct=1 / cqm=0 / deadzone=21,11 / fast_pskip=0 / chroma_qp_offset=-3 / threads=3 / sliced_threads=0 / nr=0 / decimate=0 / interlaced=0 / bluray_compat=0 / constrained_intra=0 / bframes=9 / b_pyramid=2 / b_adapt=2 / b_bias=0 / direct=3 / weightb=1 / open_gop=0 / weightp=2 / keyint=250 / keyint_min=25 / scenecut=40 / intra_refresh=0 / rc_lookahead=40 / rc=2pass / mbtree=0 / bitrate=2489 / ratetol=1.0 / qcomp=0.65 / qpmin=0 / qpmax=69 / qpstep=4 / cplxblur=20.0 / qblur=0.5 / vbv_maxrate=50000 / vbv_bufsize=50000 / nal_hrd=none / ip_ratio=1.40 / pb_ratio=1.30 / aq=1:1.00
Language                         : English

Audio #1
ID                               : 2
Format                           : AC-3
Format/Info                      : Audio Coding 3
Codec ID                         : A_AC3
Duration                         : 1h 48mn
Bit rate mode                    : Constant
Bit rate                         : 192 Kbps
Channel(s)                       : 2 channels
Channel positions                : L R
Sampling rate                    : 48.0 KHz
Stream size                      : 150 MiB (7%)
Title                            : MVO
Language                         : Russian

Audio #2
ID                               : 3
Format                           : AC-3
Format/Info                      : Audio Coding 3
Codec ID                         : A_AC3
Duration                         : 1h 48mn
Bit rate mode                    : Constant
Bit rate                         : 192 Kbps
Channel(s)                       : 2 channels
Channel positions                : L R
Sampling rate                    : 48.0 KHz
Stream size                      : 150 MiB (7%)
Title                            : Original
Language                         : English

Text #1
ID                               : 4
Format                           : UTF-8
Codec ID                         : S_TEXT/UTF8
Codec ID/Info                    : UTF-8 Plain Text
Language                         : Russian

Text #2
ID                               : 5
Format                           : UTF-8
Codec ID                         : S_TEXT/UTF8
Codec ID/Info                    : UTF-8 Plain Text
Language                         : English


picpicpicpic
Для увеличения картинки щелкните мышкой по превью

Этот торрент недоступен для скачивания без регистрации, однако доступен по публичной magnet-ссылке (источники с публичных трекеров). Перед использованием ссылки прочтите, пожалуйста Пользовательское соглашение, а также как можно дольше оставайтесь на раздаче! Для того, чтобы скачать сам торрент-файл (который видит больше источников), а также для того, чтобы поблагодарить релизера, вам необходимо зарегистрироваться. Если регистрироваться лень - вы можете также попробовать скачать релиз по нашим партнерским ссылкам ниже.

[underverse.su].t21988.torrent
Трекер: Зарегистрирован   [ 07.12.2012 15:49 ]  

Статус: проверено (by garry at 07.12.2012 17:05)
Поблагодарили: пока никто не поблагодарил...
Тип торрента: публичный - доступные источники с открытых трекеров: 
Размер: 2,19 GB (занимает 1/2 DVDR, для записи нужно 1 болванка DVDR/RW)
 
 

Яндекс.Метрика powered by Sphinx


В Н И М А Н И Е
Сайт не распространяет и не хранит электронные версии произведений, а лишь бесплатно и без коммерческой выгоды (не требуя взамен платы,
SMS и т.д.) предоставляет доступ к создаваемому пользователями каталогу ссылок на торрент-файлы, которые содержат только списки хеш-сумм.
Убедительная просьба с жалобами обращаться напрямую к пользователю, разместившему торрент файл.

Вверх