Loading...
Error

Обитель зла: Возмездие / Resident Evil: Retribution (Пол У. С. Андерсон) [2012 г., ужасы, фантастика, боевик, триллер, BDRip-AVC] Dub + Original

Статистика раздачи
Размер:  2,18 GB   |    Зарегистрирован:  4 года   |    Скачан:  12 раз

Полного источника не было: 3 месяца 8 дней

Сидов:  0  |  0 KB/s  ]   Личеров:  0  |  0 KB/s  ]

* - сиды/пиры с внешних источников

   
 
Автор Сообщение

Garnett Пол:Муж

07-Дек-2012 13:18

Обитель зла: Возмездие / Resident Evil: Retribution


Год выпуска: 2012
Жанр: ужасы, фантастика, боевик, триллер
Страна: Германия , Канада
Режиссер: Пол У. С. Андерсон
В ролях: Милла Йовович, Сиенна Гиллори, Мишель Родригес, Ариана Энджинир, Ли Бинбин, Борис Коджо, Йохан Урб, Робин Касянов, Кевин Дюран, Офилио Портильо
Сюжет фильма:
Смертельный T-вирус, созданный в лабораториях корпорации «Амбрелла», продолжает захватывать Землю, превращая мировое население в легионы пожирающих плоть зомби. Последняя надежда человечества Элис внедряется в самое сердце самой тайной исследовательской базы корпорации и узнает еще больше о собственном таинственном прошлом. Не имея путей к отступлению, Элис продолжает искать виновных в глобальной катастрофе. Вызов, который она принимала в Токио, Нью-Йорке, Вашингтоне и даже в Москве, приводит ее в итоге к взрывающему сознание откровению, которое заставит ее переосмыслить все, что она полагала правдой. С помощью новых союзников и старых друзей, Элис будет сражаться за выживание и убегать из враждебного мира. Отсчет времени начат…

  • Мировая премьера: 3 сентября 2012
  • Российская премьера: 13 сентября 2012, «WDSSPR» 3D

Качество видео: BDRip-AVC

Продолжительность: 01:35:37
Формат: MKV
Видео: x264, 1056 x 440, 2372 kbps
Аудио #1: русский, дублированный [лицензия], AC3 5.1, 448 kbps
Аудио #2: английский, оригинал, AC3 5.1, 448 kbps
Субтитры: Русские, Английские

Код:

General
Unique ID : 191234421696212562525452947601935346254 (0x8FDE68F023991CF69B71DCF20A8CAA4E)
Complete name : I:\Obitel.Zla.Vozmezdie.2012.DUAL.BDRip-AVC.AC3.-HQ-ViDEO.mkv
Format : Matroska
Format version : Version 2
File size : 2.18 GiB
Duration : 1h 35mn
Overall bit rate : 3 269 Kbps
Movie name : Resident Evil: Retribution (2012) - HQ-ViDEO
Encoded date : UTC 2012-12-07 03:16:47
Writing application : mkvmerge v5.8.0 ('No Sleep / Pillow') built on Sep 2 2012 15:37:04
Writing library : libebml v1.2.3 + libmatroska v1.3.0
Video
ID : 1
Format : AVC
Format/Info : Advanced Video Codec
Format profile : High@L4.1
Format settings, CABAC : Yes
Format settings, ReFrames : 12 frames
Codec ID : V_MPEG4/ISO/AVC
Duration : 1h 35mn
Bit rate : 2 372 Kbps
Width : 1 056 pixels
Height : 440 pixels
Display aspect ratio : 2.40:1
Frame rate mode : Constant
Frame rate : 23.976 fps
Color space : YUV
Chroma subsampling : 4:2:0
Bit depth : 8 bits
Scan type : Progressive
Bits/(Pixel*Frame) : 0.213
Stream size : 1.54 GiB (71%)
Title : Vaippp
Writing library : x264 core 129 r2230 1cffe9f
Encoding settings : cabac=1 / ref=12 / deblock=1:-1:-1 / analyse=0x3:0x133 / me=umh / subme=10 / psy=1 / psy_rd=1.03:0.00 / mixed_ref=1 / me_range=24 / chroma_me=1 / trellis=2 / 8x8dct=1 / cqm=0 / deadzone=21,11 / fast_pskip=0 / chroma_qp_offset=-2 / threads=12 / lookahead_threads=2 / sliced_threads=0 / nr=0 / decimate=0 / interlaced=0 / bluray_compat=0 / constrained_intra=0 / bframes=11 / b_pyramid=2 / b_adapt=2 / b_bias=0 / direct=3 / weightb=1 / open_gop=0 / weightp=2 / keyint=240 / keyint_min=22 / scenecut=40 / intra_refresh=0 / rc_lookahead=60 / rc=2pass / mbtree=0 / bitrate=2372 / ratetol=1.0 / qcomp=0.65 / qpmin=0 / qpmax=40 / qpstep=4 / cplxblur=20.0 / qblur=0.5 / vbv_maxrate=50000 / vbv_bufsize=50000 / nal_hrd=none / ip_ratio=1.35 / pb_ratio=1.30 / aq=1:0.90 / zones=123181,137567,q=35
Language : English
Default : Yes
Forced : No
Color primaries : BT.709
Transfer characteristics : BT.709
Matrix coefficients : BT.709
Audio #1
ID : 2
Format : AC-3
Format/Info : Audio Coding 3
Mode extension : CM (complete main)
Format settings, Endianness : Big
Codec ID : A_AC3
Duration : 1h 35mn
Bit rate mode : Constant
Bit rate : 448 Kbps
Channel(s) : 6 channels
Channel positions : Front: L C R, Side: L R, LFE
Sampling rate : 48.0 KHz
Bit depth : 16 bits
Compression mode : Lossy
Stream size : 306 MiB (14%)
Title : DUB@BD-EUR
Language : Russian
Default : Yes
Forced : Yes
Audio #2
ID : 3
Format : AC-3
Format/Info : Audio Coding 3
Mode extension : CM (complete main)
Format settings, Endianness : Big
Codec ID : A_AC3
Duration : 1h 35mn
Bit rate mode : Constant
Bit rate : 448 Kbps
Channel(s) : 6 channels
Channel positions : Front: L C R, Side: L R, LFE
Sampling rate : 48.0 KHz
Bit depth : 16 bits
Compression mode : Lossy
Stream size : 306 MiB (14%)
Title : Original
Language : English
Default : No
Forced : No
Text #1
ID : 4
Format : UTF-8
Codec ID : S_TEXT/UTF8
Codec ID/Info : UTF-8 Plain Text
Language : Russian
Default : No
Forced : No
Text #2
ID : 5
Format : UTF-8
Codec ID : S_TEXT/UTF8
Codec ID/Info : UTF-8 Plain Text
Language : English
Default : No
Forced : No
Menu
00:00:00.000 : en:Chapter 01
00:07:43.045 : en:Chapter 02
00:14:32.538 : en:Chapter 03
00:21:38.839 : en:Chapter 04
00:25:39.329 : en:Chapter 05
00:29:31.186 : en:Chapter 06
00:34:16.846 : en:Chapter 07
00:39:14.769 : en:Chapter 08
00:45:29.435 : en:Chapter 09
00:50:27.441 : en:Chapter 10
00:54:42.070 : en:Chapter 11
01:00:14.861 : en:Chapter 12
01:05:38.476 : en:Chapter 13
01:11:22.903 : en:Chapter 14
01:16:15.571 : en:Chapter 15
01:21:29.384 : en:Chapter 16
picpicpic
Для увеличения картинки щелкните мышкой по превью

Этот торрент недоступен для скачивания без регистрации, однако доступен по публичной magnet-ссылке (источники с публичных трекеров). Перед использованием ссылки прочтите, пожалуйста Пользовательское соглашение, а также как можно дольше оставайтесь на раздаче! Для того, чтобы скачать сам торрент-файл (который видит больше источников), а также для того, чтобы поблагодарить релизера, вам необходимо зарегистрироваться. Если регистрироваться лень - вы можете также попробовать скачать релиз по нашим партнерским ссылкам ниже.

[underverse.su].t21963.torrent
Трекер: Зарегистрирован   [ 07.12.2012 13:18 ]  

Статус: проверено (by garry at 07.12.2012 14:10)
Поблагодарили: 1 человек
Тип торрента: публичный - доступные источники с открытых трекеров: 
Размер: 2,18 GB (занимает 1/2 DVDR, для записи нужно 1 болванка DVDR/RW)
 
 
Похожие темы
Форум Тема Автор Торрент Отв. Посл. сооб.
Зарубежное кино [DVDRip, Low-Res HDRip, и т.д.] Обитель зла 4: Жизнь после смерти 3D / Resident Evil: Afterlife (Пол У. С. Андерсон) [2010 г., ужасы, фантастика, боевик, триллер, BDRip] BartSimpson
0 | 0

4 | 955

3

19.12.2010 17:29

Зарубежное кино [DVDRip, Low-Res HDRip, и т.д.] Обитель Зла: Возмездие / Resident Evil: Retribution (Пол У С Андерсон) [2012 г., Боевик, Фантастика, Ужасы, Триллер, HDRip] Dub 90ytr90
1 | 0

0 | 499

5

06.12.2012 20:37

Зарубежное кино [DVDRip, Low-Res HDRip, и т.д.] Обитель Зла: Возмездие / Resident Evil: Retribution (Пол У. С. Андерсон) [2012, ужасы, фантастика, боевик, триллер, BDRip] Dub + Original Eng + Subs Garnett
0 | 0

0 | 575

23

08.12.2012 09:41

Зарубежное кино [DVDRip, Low-Res HDRip, и т.д.] Обитель зла. Пенталогия / Resident Evil. Pentalogy (Пол У. С. Андерсон) [2002–2012 г., Ужасы, фантастика, боевик, триллер, BDRip-AVC] luis5
3 | 1

2 | 1940

69

11.08.2014 05:12

Зарубежное кино HQ Обитель зла: Возмездие / Resident Evil: Retribution (Пол У. С. Андерсон) [2012 г., ужасы, фантастика, боевик, триллер, BDRip] Dub (Rus) + Dub (Ukr) + Original HQ Underverse HQ Underverse
0 | 0

0 | 1303

61

07.12.2012 07:19

Зарубежные мультфильмы Обитель зла: Проклятие / Biohazard: Damnation (Макото Камия) [2012 г., мультфильм, ужасы, фантастика, боевик, триллер, HDRip] MVO RG NewCinema
4 | 0

5 | 860

71

23.09.2012 01:12

Зарубежное кино [DVD / HDDVD / BD / Remux] Обитель Зла: Возмездие / Resident Evil: Retribution (Пол У С Андерсон) [2012 г., Боевик, Фантастика, Ужасы, Триллер, DVD9] R5 90ytr90
0 | 0

0 | 590

7

06.12.2012 20:04

Зарубежное кино [DVD / HDDVD / BD / Remux] Обитель Зла: Возмездие / Resident Evil: Retribution (Пол У. С. Андерсон) [2012, ужасы, фантастика, боевик, триллер, Blu-ray Disc [EUR], 1080p] Garnett
5 | 0

0 | 1170

11

08.12.2012 09:32

Зарубежное кино [HDDVDRip / BDRip / WEB-DL / HDTV 1080/720р] Обитель Зла: Возмездие / Resident Evil: Retribution (Пол У С Андерсон) [2012 г., Боевик, Фантастика, Ужасы, Триллер, BDRip 1080p] Dub + Original 90ytr90
0 | 0

0 | 651

7

08.12.2012 10:13

Зарубежное кино [HDDVDRip / BDRip / WEB-DL / HDTV 1080/720р] Обитель Зла: Возмездие / Resident Evil: Retribution (Пол У С Андерсон) [2012 г., Боевик, Фантастика, Ужасы, Триллер, BDRip 720p] Dub + Original 90ytr90
2 | 0

1 | 534

11

09.12.2012 16:17


Яндекс.Метрика powered by Sphinx


В Н И М А Н И Е
Сайт не распространяет и не хранит электронные версии произведений, а лишь бесплатно и без коммерческой выгоды (не требуя взамен платы,
SMS и т.д.) предоставляет доступ к создаваемому пользователями каталогу ссылок на торрент-файлы, которые содержат только списки хеш-сумм.
Убедительная просьба с жалобами обращаться напрямую к пользователю, разместившему торрент файл.

Вверх