Loading...
Error

Доспехи Бога 2: Операция Кондор / Fei ying gai wak (Джеки Чан) [1991 г., боевик, триллер, комедия, криминал, приключения, DVDRip] MVO + VO

Статистика раздачи
Размер:  1,74 GB   |    Зарегистрирован:  4 года   |    Скачан:  20 раз

Полного источника не было: 8 месяцев

Сидов:  0  |  0 KB/s  ]   Личеров:  0  |  0 KB/s  ]

* - сиды/пиры с внешних источников

   
 
Автор Сообщение

Jimmy Пол:Муж

07-Дек-2012 09:17

Доспехи Бога 2: Операция Кондор / Fei ying gai wak

Год выпуска: 1991
Жанр: боевик, триллер, комедия, криминал, приключения
Страна: Гонконг
Режиссер: Джеки Чан
В ролях: Джеки Чан, Кэрол «До До» Чэн, Ева Кобо, Шоко Икеда, Альдо Самбрелл, Кен Гудман, Стиви Тарталия, Лин Персивал, Брюс Фонтейн, Уэйн Арчер
Сюжет фильма:
Азиатский Ястреб возвращается! На этот раз ему предстоит новая работа, из-за которой наш герой опять приезжает в Мадрид. Некий загадочный миллионер предлагает Ястребу заняться поисками нацистских сокровищ, которые спрятаны в глубине африканской пустыни. Он передает ключ к сокровищнице, соглашается финансировать экспедицию и отправляет с Ястребом попутчицу — специалиста по Африке Аду.

Во-время, своего пребывания в Мадриде, Ястреб знакомится с немецкой девушкой Эльзой, которая разыскивает своего деда, пропавшего во время войны в Африке. После ряда приключений Эльза тоже присоединяется к экспедиции.

  • Мировая премьера: 7 февраля 1991


Качество видео: DVDRip

Продолжительность: 01:46:31
Формат: avi
Видео: XviD, 704x304, 1567 kbps
Аудио #1: русский, многоголосый закадровый [профессиональный], AC3 5.1, 384 kbps
Аудио #2: русский, одноголосый закадровый [любительский], AC3 5.1, 384 kbps (отдельным файлом)

Код:

General
Complete name                    : F:\Under\blablabla\_на время конкурса\Dospehi.boga.2.1991.MVO.AVO\Dospehi.boga.2.1991.avi
Format                           : AVI
Format/Info                      : Audio Video Interleave
File size                        : 1.46 GiB
Duration                         : 1h 46mn
Overall bit rate                 : 1 961 Kbps
Movie name                       : Доспехи бога 2: Операция Кондор
Director                         : zim2001
Writing application              : VirtualDubMod 1.5.10.2 (build 2540/release)
Copyright                        : *другой трекер*

Video
ID                               : 0
Format                           : MPEG-4 Visual
Format profile                   : Streaming Video@L1
Format settings, BVOP            : Yes
Format settings, QPel            : No
Format settings, GMC             : No warppoints
Format settings, Matrix          : Default (MPEG)
Codec ID                         : XVID
Codec ID/Hint                    : XviD
Duration                         : 1h 46mn
Bit rate                         : 1 568 Kbps
Width                            : 704 pixels
Height                           : 304 pixels
Display aspect ratio             : 2.35
Frame rate                       : 23.976 fps
Resolution                       : 24 bits
Colorimetry                      : 4:2:0
Scan type                        : Progressive
Bits/(Pixel*Frame)               : 0.306
Stream size                      : 1.17 GiB (80%)
Writing library                  : XviD 1.2.0.dev47 (UTC 2006-11-01)

Audio
ID                               : 1
Format                           : AC-3
Format/Info                      : Audio Coding 3
Codec ID                         : 2000
Duration                         : 1h 46mn
Bit rate mode                    : Constant
Bit rate                         : 384 Kbps
Channel(s)                       : 6 channels
Channel positions                : Front: L C R, Surround: L R, LFE
Sampling rate                    : 48.0 KHz
Stream size                      : 293 MiB (20%)
Alignment                        : Split accross interleaves
Interleave, duration             : 42 ms (1.00 video frame)
Interleave, preload duration     : 500 ms

General
Complete name                    : F:\Under\blablabla\_на время конкурса\Dospehi.boga.2.1991.MVO.AVO\Dospehi.boga.2.1991.ac3
Format                           : AC-3
Format/Info                      : Audio Coding 3
File size                        : 293 MiB
Duration                         : 1h 46mn
Overall bit rate                 : 384 Kbps

Audio
Format                           : AC-3
Format/Info                      : Audio Coding 3
Duration                         : 1h 46mn
Bit rate mode                    : Constant
Bit rate                         : 384 Kbps
Channel(s)                       : 6 channels
Channel positions                : Front: L C R, Surround: L R, LFE
Sampling rate                    : 48.0 KHz
Stream size                      : 293 MiB (100%)

Семпл: http://multi-up.com/115771

picpicpicpicpic
Для увеличения картинки щелкните мышкой по превью

Этот торрент недоступен для скачивания без регистрации, однако доступен по публичной magnet-ссылке (источники с публичных трекеров). Перед использованием ссылки прочтите, пожалуйста Пользовательское соглашение, а также как можно дольше оставайтесь на раздаче! Для того, чтобы скачать сам торрент-файл (который видит больше источников), а также для того, чтобы поблагодарить релизера, вам необходимо зарегистрироваться. Если регистрироваться лень - вы можете также попробовать скачать релиз по нашим партнерским ссылкам ниже.

[underverse.su].t21954.torrent
Трекер: Зарегистрирован   [ 07.12.2012 09:17 ]  

Статус: проверено (by Garnett at 07.12.2012 11:51)
Поблагодарили: 2 человека
Тип торрента: публичный - доступные источники с открытых трекеров: 
Размер: 1,74 GB (занимает 0,4 DVDR, для записи нужно 1 болванка DVDR/RW)
 
 
Похожие темы
Форум Тема Автор Торрент Отв. Посл. сооб.
Зарубежное кино [DVDRip, Low-Res HDRip, и т.д.] Доспехи Бога 3: Миссия Зодиак / Chinese Zodiac (Джеки Чан / Jackie Chan) [2012 г., Боевик, комедия, приключения, BDRip-AVC] Dub + Sub (Rus, Eng) 90ytr90
8 | 0

0 | 227

5

19.11.2016 09:18

Зарубежное кино [DVDRip, Low-Res HDRip, и т.д.] Доспехи Бога / Long xiong hu di (Джеки Чан, Эрик Цан) [1986 г., боевик, комедия, приключения, DVDRip] MVO + VO Jimmy
16 | 0

2 | 822

28

24.03.2013 22:53

Зарубежное кино [DVDRip, Low-Res HDRip, и т.д.] Доспехи Бога 3: Миссия Зодиак / Chinese Zodiac (Джеки Чан) [2012 г., Боевик, комедия, приключения, HDRip] Dub 90ytr90
30 | 4

0 | 1068

96

11.03.2013 15:16

Зарубежное кино [DVDRip, Low-Res HDRip, и т.д.] Доспехи Бога 3: Миссия Зодиак / Chinese Zodiac (Джеки Чан) [2012 г., Боевик, комедия, приключения, HDRip] Dub 90ytr90
65 | 1

0 | 881

59

11.03.2013 15:56

Зарубежное кино [HDDVDRip / BDRip / WEB-DL / HDTV 1080/720р] Доспехи Бога: Дилогия / Armour of God: Dilogy (Джеки Чан, Эрик Цан) [1986, 1991 г., Боевик, комедия, приключения, BDRip 1080p] AVO + DVO Чертёнок
3 | 1

0 | 1507

7

16.02.2013 13:05

Зарубежное кино [HDDVDRip / BDRip / WEB-DL / HDTV 1080/720р] Доспехи Бога 3: Миссия Зодиак / Chinese Zodiac (Джеки Чан) [2012 г., Боевик, комедия, приключения, BDRip 720p] Dub + Chi 90ytr90
0 | 2

0 | 448

23

11.03.2013 16:35

Зарубежное кино [HDDVDRip / BDRip / WEB-DL / HDTV 1080/720р] Доспехи Бога 3: Миссия Зодиак / Chinese Zodiac (Джеки Чан) [2012 г., Боевик, комедия, приключения, BDRip 1080p] Dub + Chi 90ytr90
0 | 0

0 | 559

32

11.03.2013 18:33


Яндекс.Метрика powered by Sphinx


В Н И М А Н И Е
Сайт не распространяет и не хранит электронные версии произведений, а лишь бесплатно и без коммерческой выгоды (не требуя взамен платы,
SMS и т.д.) предоставляет доступ к создаваемому пользователями каталогу ссылок на торрент-файлы, которые содержат только списки хеш-сумм.
Убедительная просьба с жалобами обращаться напрямую к пользователю, разместившему торрент файл.

Вверх