Loading...
Error

Обитель зла: Возмездие / Resident Evil: Retribution (Пол У. С. Андерсон) [2012 г., ужасы, фантастика, боевик, триллер, BDRip] Dub (Rus) + Dub (Ukr) + Original HQ Underverse

Статистика раздачи
Размер:  1,47 GB   |    Зарегистрирован:  3 года 11 месяцев   |    Скачан:  61 раз

Полного источника не было: 6 часов

Сидов:  0  |  0 KB/s  ]   Личеров:  0  |  0 KB/s  ]

* - сиды/пиры с внешних источников

   
 
Автор Сообщение

HQ Underverse 

07-Дек-2012 07:19

Обитель зла: Возмездие / Resident Evil: Retribution


Год выпуска: 2012
Жанр: ужасы, фантастика, боевик, триллер
Страна: Германия , Канада
Режиссер: Пол У. С. Андерсон
В ролях: Милла Йовович, Сиенна Гиллори, Мишель Родригес, Ариана Энджинир, Ли Бинбин, Борис Коджо, Йохан Урб, Робин Касянов, Кевин Дюран, Офилио Портильо
Сюжет фильма:
Смертельный T-вирус, созданный в лабораториях корпорации «Амбрелла», продолжает захватывать Землю, превращая мировое население в легионы пожирающих плоть зомби. Последняя надежда человечества Элис внедряется в самое сердце самой тайной исследовательской базы корпорации и узнает еще больше о собственном таинственном прошлом. Не имея путей к отступлению, Элис продолжает искать виновных в глобальной катастрофе. Вызов, который она принимала в Токио, Нью-Йорке, Вашингтоне и даже в Москве, приводит ее в итоге к взрывающему сознание откровению, которое заставит ее переосмыслить все, что она полагала правдой. С помощью новых союзников и старых друзей, Элис будет сражаться за выживание и убегать из враждебного мира. Отсчет времени начат…

  • Мировая премьера: 3 сентября 2012
  • Российская премьера: 13 сентября 2012, «WDSSPR» 3D


Качество видео: BDRip [Resident Evil Retribution 2012 Bluray 1080p Remux AVC DTSHD MA 5 1 BluHD]

Продолжительность: 01:35:37
Формат: avi
Видео: XviD, 720x304, 1803 kbps
Аудио #1: русский, дублированный [лицензия BD CEE], AC3 5.1, 384 kbps
Аудио #2: украинский, дублированный [лицензия BD CEE], AC3 5.1, 384 kbps (отдельно)
Аудио #3: английский, оригинал, AC3 5.1, 384 kbps (отдельно)

Код:

General
Complete name                    : D:\Video\Movies\Releases\Resident.Evil.Retribution.2012.BDRip.XviD.AC3.Rus.D.HQ.Underverse.avi
Format                           : AVI
Format/Info                      : Audio Video Interleave
File size                        : 1.47 GiB
Duration                         : 1h 35mn
Overall bit rate                 : 2 196 Kbps
Writing application              : VirtualDubMod 1.5.10.2 (build 2540/release)
Writing library                  : VirtualDubMod build 2540/release

Video
ID                               : 0
Format                           : MPEG-4 Visual
Format profile                   : Streaming Video@L1
Format settings, BVOP            : Yes
Format settings, QPel            : No
Format settings, GMC             : No warppoints
Format settings, Matrix          : Custom
Muxing mode                      : Packed bitstream
Codec ID                         : XVID
Codec ID/Hint                    : XviD
Duration                         : 1h 35mn
Bit rate                         : 1 803 Kbps
Width                            : 720 pixels
Height                           : 304 pixels
Display aspect ratio             : 2.35
Frame rate                       : 23.976 fps
Resolution                       : 24 bits
Colorimetry                      : 4:2:0
Scan type                        : Progressive
Bits/(Pixel*Frame)               : 0.344
Stream size                      : 1.20 GiB (82%)
Writing library                  : XviD 64

Audio
ID                               : 1
Format                           : AC-3
Format/Info                      : Audio Coding 3
Codec ID                         : 2000
Duration                         : 1h 35mn
Bit rate mode                    : Constant
Bit rate                         : 384 Kbps
Channel(s)                       : 6 channels
Channel positions                : Front: L C R, Surround: L R, LFE
Sampling rate                    : 48.0 KHz
Stream size                      : 263 MiB (17%)
Alignment                        : Split accross interleaves
Interleave, duration             : 42 ms (1.00 video frame)
Interleave, preload duration     : 500 ms
Title                            : Resident.Evil.Retribution.2012.AC3.Rus.D.384.kbps.HQ.Underverse.ac3

Семпл: http://multi-up.com/800084

Релиз группы:

picpicpic
Для увеличения картинки щелкните мышкой по превью

Этот торрент недоступен для скачивания без регистрации, однако доступен по публичной magnet-ссылке (источники с публичных трекеров). Перед использованием ссылки прочтите, пожалуйста Пользовательское соглашение, а также как можно дольше оставайтесь на раздаче! Для того, чтобы скачать сам торрент-файл (который видит больше источников), а также для того, чтобы поблагодарить релизера, вам необходимо зарегистрироваться. Если регистрироваться лень - вы можете также попробовать скачать релиз по нашим партнерским ссылкам ниже.

[underverse.su].t21935.torrent
Трекер: Зарегистрирован   [ 07.12.2012 07:19 ]  

Статус: проверено (by garry at 07.12.2012 08:40)
Поблагодарили: 4 человека
Тип торрента: публичный - доступные источники с открытых трекеров: 
Размер: 1,47 GB (занимает 0,34 DVDR, для записи нужно 1 болванка DVDR/RW)
 
 
Похожие темы
Форум Тема Автор Торрент Отв. Посл. сооб.
Зарубежное кино [DVDRip, Low-Res HDRip, и т.д.] Обитель зла 4: Жизнь после смерти 3D / Resident Evil: Afterlife (Пол У. С. Андерсон) [2010 г., ужасы, фантастика, боевик, триллер, BDRip] BartSimpson
0 | 0

4 | 952

3

19.12.2010 17:29

Зарубежное кино [DVDRip, Low-Res HDRip, и т.д.] Обитель Зла: Возмездие / Resident Evil: Retribution (Пол У С Андерсон) [2012 г., Боевик, Фантастика, Ужасы, Триллер, HDRip] Dub 90ytr90
1 | 0

0 | 497

5

06.12.2012 20:37

Зарубежное кино [DVDRip, Low-Res HDRip, и т.д.] Обитель зла: Возмездие / Resident Evil: Retribution (Пол У. С. Андерсон) [2012 г., ужасы, фантастика, боевик, триллер, BDRip-AVC] Dub + Original Garnett
13 | 0

0 | 579

12

07.12.2012 13:18

Зарубежное кино [DVDRip, Low-Res HDRip, и т.д.] Обитель Зла: Возмездие / Resident Evil: Retribution (Пол У. С. Андерсон) [2012, ужасы, фантастика, боевик, триллер, BDRip] Dub + Original Eng + Subs Garnett
0 | 0

0 | 573

23

08.12.2012 09:41

Зарубежное кино [DVDRip, Low-Res HDRip, и т.д.] Обитель зла. Пенталогия / Resident Evil. Pentalogy (Пол У. С. Андерсон) [2002–2012 г., Ужасы, фантастика, боевик, триллер, BDRip-AVC] luis5
5 | 0

2 | 1927

69

11.08.2014 05:12

Зарубежные мультфильмы Обитель зла: Проклятие / Biohazard: Damnation (Макото Камия) [2012 г., мультфильм, ужасы, фантастика, боевик, триллер, HDRip] MVO RG NewCinema
4 | 0

5 | 859

71

23.09.2012 01:12

Зарубежное кино [DVD / HDDVD / BD / Remux] Обитель Зла: Возмездие / Resident Evil: Retribution (Пол У С Андерсон) [2012 г., Боевик, Фантастика, Ужасы, Триллер, DVD9] R5 90ytr90
0 | 0

0 | 588

7

06.12.2012 20:04

Зарубежное кино [DVD / HDDVD / BD / Remux] Обитель Зла: Возмездие / Resident Evil: Retribution (Пол У. С. Андерсон) [2012, ужасы, фантастика, боевик, триллер, Blu-ray Disc [EUR], 1080p] Garnett
5 | 0

0 | 1169

11

08.12.2012 09:32

Зарубежное кино [HDDVDRip / BDRip / WEB-DL / HDTV 1080/720р] Обитель Зла: Возмездие / Resident Evil: Retribution (Пол У С Андерсон) [2012 г., Боевик, Фантастика, Ужасы, Триллер, BDRip 1080p] Dub + Original 90ytr90
0 | 0

0 | 648

7

08.12.2012 10:13

Зарубежное кино [HDDVDRip / BDRip / WEB-DL / HDTV 1080/720р] Обитель Зла: Возмездие / Resident Evil: Retribution (Пол У С Андерсон) [2012 г., Боевик, Фантастика, Ужасы, Триллер, BDRip 720p] Dub + Original 90ytr90
2 | 0

1 | 534

11

09.12.2012 16:17


Яндекс.Метрика powered by Sphinx


В Н И М А Н И Е
Сайт не распространяет и не хранит электронные версии произведений, а лишь бесплатно и без коммерческой выгоды (не требуя взамен платы,
SMS и т.д.) предоставляет доступ к создаваемому пользователями каталогу ссылок на торрент-файлы, которые содержат только списки хеш-сумм.
Убедительная просьба с жалобами обращаться напрямую к пользователю, разместившему торрент файл.

Вверх