Loading...
Error

Доспехи Бога / Long xiong hu di (Джеки Чан, Эрик Цан) [1986 г., боевик, комедия, приключения, DVDRip] MVO + VO

Статистика раздачи
Размер:  2,15 GB   |    Зарегистрирован:  4 года   |    Скачан:  28 раз

Полного источника не было: 11 месяцев

Сидов:  0  |  0 KB/s  ]   Личеров:  0  |  0 KB/s  ]

* - сиды/пиры с внешних источников

   
 
Автор Сообщение

Jimmy Пол:Муж

07-Дек-2012 06:14

Доспехи Бога / Long xiong hu di

Год выпуска: 1986
Жанр: боевик, комедия, приключения
Страна: Югославия
Режиссер: Джеки Чан, Эрик Цан
В ролях: Джеки Чан, Алан Там, Розамунд Кван, Лола Форнер, Божидар Смилянич, Кен Бойл, Джон Ладальски, Роберт О’Брайэн, Борис Грегорич, Марсия Чишолм
Сюжет фильма:
«Азиатский ястреб» — так назвали героя Джеки в Европе. Когда он похитил в Африке ритуальный меч, то не предполагал, что это начало опасных приключений. Оказывается, что меч — часть древних доспехов Бога, и если их уничтожить, то в мире будут править силы Ужаса и Зла.

Силы Зла, которые укрылись в неприступном монастыре, узнают, что у Джеки есть доступ к остальным доспехам. Они похищают девушку, которую любит Ястреб, и требуют выкупа.

Понимая, что одной ловкостью ему не справиться с полчищами бандитов, Джеки добровольно становится человеком — бомбой. Но этот козырь он приберег на самый крайний случай…

  • Мировая премьера: 16 августа 1986



Продолжительность: 01:37:49
Формат: avi
Видео: XviD, 720x400, 1847 kbps
Аудио #1: русский, многоголосый закадровый [профессиональный], AC3 5.1, 448 kbps
Аудио #2: русский, одноголосый закадровый [Гаврилов], AC3 5.1, 448 kbps
Аудио #3: китайский, оригинал, AC3 5.1, 384 kbps

Код:

General
Complete name                    : C:\Users\Z\Desktop\Dospehi_Boga_[*другой трекер*]_by_Scarabey.avi
Format                           : AVI
Format/Info                      : Audio Video Interleave
Format profile                   : OpenDML
File size                        : 2.15 GiB
Duration                         : 1h 37mn
Overall bit rate                 : 3 152 Kbps
Writing application              : VirtualDubMod 1.6.0.0 SURROUND (build 2560/release)
Writing library                  : VirtualDubMod build 2560/release

Video
ID                               : 0
Format                           : MPEG-4 Visual
Format profile                   : Streaming Video@L1
Format settings, BVOP            : Yes
Format settings, QPel            : No
Format settings, GMC             : No warppoints
Format settings, Matrix          : Default (MPEG)
Codec ID                         : XVID
Codec ID/Hint                    : XviD
Duration                         : 1h 37mn
Bit rate                         : 1 848 Kbps
Width                            : 720 pixels
Height                           : 400 pixels
Display aspect ratio             : 16/9
Frame rate                       : 23.976 fps
Resolution                       : 24 bits
Colorimetry                      : 4:2:0
Scan type                        : Progressive
Bits/(Pixel*Frame)               : 0.268
Stream size                      : 1.26 GiB (59%)
Writing library                  : XviD 1.2.0.dev47 (UTC 2006-11-01)

Audio #1
ID                               : 1
Format                           : AC-3
Format/Info                      : Audio Coding 3
Codec ID                         : 2000
Duration                         : 1h 37mn
Bit rate mode                    : Constant
Bit rate                         : 448 Kbps
Channel(s)                       : 6 channels
Channel positions                : Front: L C R, Surround: L R, LFE
Sampling rate                    : 48.0 KHz
Stream size                      : 313 MiB (14%)
Alignment                        : Aligned on interleaves
Interleave, duration             : 42 ms (1.00 video frame)
Interleave, preload duration     : 512 ms

Audio #2
ID                               : 2
Format                           : AC-3
Format/Info                      : Audio Coding 3
Codec ID                         : 2000
Duration                         : 1h 37mn
Bit rate mode                    : Constant
Bit rate                         : 448 Kbps
Channel(s)                       : 6 channels
Channel positions                : Front: L C R, Surround: L R, LFE
Sampling rate                    : 48.0 KHz
Stream size                      : 313 MiB (14%)
Alignment                        : Aligned on interleaves
Interleave, duration             : 42 ms (1.00 video frame)
Interleave, preload duration     : 512 ms

Audio #3
ID                               : 3
Format                           : AC-3
Format/Info                      : Audio Coding 3
Codec ID                         : 2000
Duration                         : 1h 37mn
Bit rate mode                    : Constant
Bit rate                         : 384 Kbps
Channel(s)                       : 6 channels
Channel positions                : Front: L C R, Surround: L R, LFE
Sampling rate                    : 48.0 KHz
Stream size                      : 269 MiB (12%)
Alignment                        : Aligned on interleaves
Interleave, duration             : 42 ms (1.00 video frame)
Interleave, preload duration     : 512 ms

picpicpicpic
Для увеличения картинки щелкните мышкой по превью


Этот торрент недоступен для скачивания без регистрации, однако доступен по публичной magnet-ссылке (источники с публичных трекеров). Перед использованием ссылки прочтите, пожалуйста Пользовательское соглашение, а также как можно дольше оставайтесь на раздаче! Для того, чтобы скачать сам торрент-файл (который видит больше источников), а также для того, чтобы поблагодарить релизера, вам необходимо зарегистрироваться. Если регистрироваться лень - вы можете также попробовать скачать релиз по нашим партнерским ссылкам ниже.

[underverse.su].t21931.torrent
Трекер: Зарегистрирован   [ 07.12.2012 06:14 ]  

Статус: проверено (by garry at 07.12.2012 13:34)
Поблагодарили: 4 человека
Тип торрента: публичный - доступные источники с открытых трекеров: 
Размер: 2,15 GB (занимает 0,49 DVDR, для записи нужно 1 болванка DVDR/RW)
 
 
Похожие темы
Форум Тема Автор Торрент Отв. Посл. сооб.
Зарубежное кино [DVDRip, Low-Res HDRip, и т.д.] Доспехи Бога 3: Миссия Зодиак / Chinese Zodiac (Джеки Чан / Jackie Chan) [2012 г., Боевик, комедия, приключения, BDRip-AVC] Dub + Sub (Rus, Eng) 90ytr90
8 | 0

0 | 226

4

19.11.2016 09:18

Зарубежное кино [DVDRip, Low-Res HDRip, и т.д.] Доспехи Бога 2: Операция Кондор / Fei ying gai wak (Джеки Чан) [1991 г., боевик, триллер, комедия, криминал, приключения, DVDRip] MVO + VO Jimmy
2 | 1

0 | 753

20

07.12.2012 09:17

Зарубежное кино [DVDRip, Low-Res HDRip, и т.д.] Доспехи Бога 3: Миссия Зодиак / Chinese Zodiac (Джеки Чан) [2012 г., Боевик, комедия, приключения, HDRip] Dub 90ytr90
30 | 4

0 | 1068

96

11.03.2013 15:16

Зарубежное кино [DVDRip, Low-Res HDRip, и т.д.] Доспехи Бога 3: Миссия Зодиак / Chinese Zodiac (Джеки Чан) [2012 г., Боевик, комедия, приключения, HDRip] Dub 90ytr90
65 | 1

0 | 880

59

11.03.2013 15:56

Зарубежное кино [HDDVDRip / BDRip / WEB-DL / HDTV 1080/720р] Доспехи Бога: Дилогия / Armour of God: Dilogy (Джеки Чан, Эрик Цан) [1986, 1991 г., Боевик, комедия, приключения, BDRip 1080p] AVO + DVO Чертёнок
3 | 1

0 | 1505

7

16.02.2013 13:05

Зарубежное кино [HDDVDRip / BDRip / WEB-DL / HDTV 1080/720р] Доспехи Бога 3: Миссия Зодиак / Chinese Zodiac (Джеки Чан) [2012 г., Боевик, комедия, приключения, BDRip 720p] Dub + Chi 90ytr90
0 | 2

0 | 447

23

11.03.2013 16:35

Зарубежное кино [HDDVDRip / BDRip / WEB-DL / HDTV 1080/720р] Доспехи Бога 3: Миссия Зодиак / Chinese Zodiac (Джеки Чан) [2012 г., Боевик, комедия, приключения, BDRip 1080p] Dub + Chi 90ytr90
0 | 0

0 | 558

32

11.03.2013 18:33

8ad_R060d Пол:Муж

24-Мар-2013 17:57

Чем нужно помочь?

garry Пол:Муж

24-Мар-2013 22:53

8ad_R060d
Вы о чем?

Яндекс.Метрика powered by Sphinx


В Н И М А Н И Е
Сайт не распространяет и не хранит электронные версии произведений, а лишь бесплатно и без коммерческой выгоды (не требуя взамен платы,
SMS и т.д.) предоставляет доступ к создаваемому пользователями каталогу ссылок на торрент-файлы, которые содержат только списки хеш-сумм.
Убедительная просьба с жалобами обращаться напрямую к пользователю, разместившему торрент файл.

Вверх