Loading...
Error

Война супругов Роуз / The War of the Roses (Дэнни ДеВито) [1989 г., комедия, BDRip-AVC] MVO + Original + 2xAVO

Статистика раздачи
Размер:  4,91 GB   |    Зарегистрирован:  3 года 11 месяцев   |    Скачан:  2 раза

Полного источника не было: 3 года 1 месяц

Сидов:  0  |  0 KB/s  ]   Личеров:  0  |  0 KB/s  ]

* - сиды/пиры с внешних источников

   
 
Автор Сообщение

garry Пол:Муж

07-Дек-2012 00:13

Война супругов Роуз / The War of the Roses


Год выпуска: 1989
Жанр: комедия
Страна: США
Режиссер: Дэнни ДеВито
В ролях: Майкл Дуглас, Кэтлин Тёрнер, Дэнни ДеВито, Марианне Зэгебрехт, Шон Эстин, Хэзер Фэйрфилд, Г.Д. Спрэдлин, Питер Донат, Дэн Кастелланета, Глория Кромвелл
Сюжет фильма:
После семнадцати лет совместной жизни Оливер и Барбара Роз решают развестись. Дети выросли, а Барбара — натура деятельная и предприимчивая. Она устала сидеть дома и решает направить ключом бьющую энергию в деловое русло. Но ее мужу, респектабельному чиновнику, это намерение жены совсем не по душе.

Только Барбаре нет до мужа никакого дела. Она делит дом на две половины. Теперь границы обозначены. Пора переходить к военным действиям. По правде сказать, кошка с собакой жили бы лучше.

  • Мировая премьера: 4 декабря 1989


Качество видео: BDRip-AVC

Продолжительность: 01:56:33
Формат: MKV
Видео: x264, 1056x570, 4490 kbps
Аудио #1: русский, многоголосый закадровый [профессиональный, R5], AC3 5.1, 448 kbps
Аудио #2: английский, оригинал, AC3 5.1, 448 kbps
Аудио #3: русский, одноголосый закадровый [авторский, Гаврилов], AC3 5.1, 448 kbps (отдельно)
Аудио #4: русский, одноголосый закадровый [авторский, Горчаков], AC3 2.0, 192 kbps (отдельно)
Субтитры #1: тип: вшитые отключаемые, русский, формат: SRT
Субтитры #2: тип: вшитые отключаемые, английский, формат: SRT

Код:

General
 Complete name : E:\...\The.War.of.the.Roses.1989.BDRip.x264.DD5.1.Rus.Eng-E76.mkv
 Format : Matroska
 Format version : Version 2
 File size : 4.39 GiB
 Duration : 1h 56mn
 Overall bit rate : 5 388 Kbps
 Movie name : The.War.of.the.Roses.1989.BDRip.x264.DD5.1.Rus.Eng-E76
 Encoded date : UTC 2012-11-24 23:31:24
 Writing application : mkvmerge v5.6.0 ('Kenya Kane') built on May 27 2012 16:44:04
 Writing library : libebml v1.2.3 + libmatroska v1.3.0

Video
 ID : 1
 Format : AVC
 Format/Info : Advanced Video Codec
 Format profile : High@L4.1
 Format settings, CABAC : Yes
 Format settings, ReFrames : 12 frames
 Codec ID : V_MPEG4/ISO/AVC
 Bit rate : 4 490 Kbps
 Width : 1 056 pixels
 Height : 570 pixels
 Display aspect ratio : 1.85:1
 Frame rate mode : Variable
 Original frame rate : 23.976 fps
 Color space : YUV
 Chroma subsampling : 4:2:0
 Bit depth : 8 bits
 Scan type : Progressive
 Bits/(Pixel*Frame) : 0.311
 Title : Encode by Enclave76
 Writing library : x264 core 128 r2216kMod 198a7ea
 Encoding settings : cabac=1 / ref=12 / deblock=1:-3:-3 / analyse=0x3:0x113 / me=umh / subme=11 / psy=1 / fade_compensate=0.00 / psy_rd=1.10:0.15 / mixed_ref=1 / me_range=48 / chroma_me=1 / trellis=2 / 8x8dct=1 / cqm=0 / deadzone=21,11 / fast_pskip=0 / chroma_qp_offset=-3 / threads=6 / lookahead_threads=1 / sliced_threads=0 / nr=0 / decimate=0 / interlaced=0 / bluray_compat=0 / constrained_intra=0 / bframes=16 / b_pyramid=2 / b_adapt=2 / b_bias=0 / direct=3 / weightb=1 / open_gop=0 / weightp=2 / keyint=240 / keyint_min=23 / scenecut=40 / intra_refresh=0 / rc_lookahead=80 / rc=2pass / mbtree=1 / bitrate=4490 / ratetol=1.0 / qcomp=0.75 / qpmin=0 / qpmax=69 / qpstep=4 / cplxblur=20.0 / qblur=0.5 / vbv_maxrate=50000 / vbv_bufsize=62500 / nal_hrd=none / ip_ratio=1.10 / aq=3:0.90 / zones=162050,167659,q=30
 Language : English
 Default : No
 Forced : No
 Matrix coefficients : BT.709

Audio #1
 ID : 2
 Format : AC-3
 Format/Info : Audio Coding 3
 Mode extension : CM (complete main)
 Format settings, Endianness : Big
 Codec ID : A_AC3
 Duration : 1h 56mn
 Bit rate mode : Constant
 Bit rate : 448 Kbps
 Channel(s) : 6 channels
 Channel positions : Front: L C R, Side: L R, LFE
 Sampling rate : 48.0 KHz
 Bit depth : 16 bits
 Compression mode : Lossy
 Stream size : 373 MiB (8%)
 Title : MVO
 Language : Russian
 Default : Yes
 Forced : No

Audio #2
 ID : 3
 Format : AC-3
 Format/Info : Audio Coding 3
 Mode extension : CM (complete main)
 Format settings, Endianness : Big
 Codec ID : A_AC3
 Duration : 1h 56mn
 Bit rate mode : Constant
 Bit rate : 448 Kbps
 Channel(s) : 6 channels
 Channel positions : Front: L C R, Side: L R, LFE
 Sampling rate : 48.0 KHz
 Bit depth : 16 bits
 Compression mode : Lossy
 Stream size : 373 MiB (8%)
 Title : Original
 Language : English
 Default : No
 Forced : No

Text #1
 ID : 4
 Format : UTF-8
 Codec ID : S_TEXT/UTF8
 Codec ID/Info : UTF-8 Plain Text
 Language : Russian
 Default : No
 Forced : No

Text #2
 ID : 5
 Format : UTF-8
 Codec ID : S_TEXT/UTF8
 Codec ID/Info : UTF-8 Plain Text
 Language : English
 Default : No
 Forced : No

Menu
 00:00:00.000 : en:Main Titles
 00:02:15.175 : en:A Divorce Story
 00:13:56.877 : en:A Dinner Party
 00:20:39.154 : en:House Hunting
 00:24:16.204 : en:Different Interests
 00:34:45.875 : en:Oliver's Attack
 00:44:39.510 : en:Barbara's Decision
 00:50:39.202 : en:Settlement Talks
 00:55:29.701 : en:The Civil Code
 00:58:24.959 : en:A Fire
 01:00:48.853 : en:A Solution
 01:03:41.359 : en:An Accident
 01:10:02.615 : en:Payback
 01:25:43.179 : en:Showdown
 01:33:33.232 : en:The Ultimate Injury
 01:42:17.464 : en:Flying High
 01:49:33.191 : en:The Moral
 01:51:39.067 : en:End Titles
Семпл: http://multi-up.com/794539

Релиз группы:

picpicpic
Для увеличения картинки щелкните мышкой по превью

Этот торрент недоступен для скачивания без регистрации, однако доступен по публичной magnet-ссылке (источники с публичных трекеров). Перед использованием ссылки прочтите, пожалуйста Пользовательское соглашение, а также как можно дольше оставайтесь на раздаче! Для того, чтобы скачать сам торрент-файл (который видит больше источников), а также для того, чтобы поблагодарить релизера, вам необходимо зарегистрироваться. Если регистрироваться лень - вы можете также попробовать скачать релиз по нашим партнерским ссылкам ниже.

[underverse.su].t21920.torrent
Трекер: Зарегистрирован   [ 07.12.2012 00:13 ]  

Статус: проверено (by garry at 07.12.2012 00:13)
Поблагодарили: пока никто не поблагодарил...
Тип торрента: публичный - доступные источники с открытых трекеров: 
Размер: 4,91 GB (занимает 1,12 DVDR, для записи нужно 2 болванки DVDR/RW)
 
 

Яндекс.Метрика powered by Sphinx


В Н И М А Н И Е
Сайт не распространяет и не хранит электронные версии произведений, а лишь бесплатно и без коммерческой выгоды (не требуя взамен платы,
SMS и т.д.) предоставляет доступ к создаваемому пользователями каталогу ссылок на торрент-файлы, которые содержат только списки хеш-сумм.
Убедительная просьба с жалобами обращаться напрямую к пользователю, разместившему торрент файл.

Вверх