Loading...
Error

Тайна в его глазах / El secreto de sus ojos (Хуан Хосе Кампанелла) [2009 г., триллер, драма, детектив, BDRip-AVC] AVO + Original + MVO

Статистика раздачи
Размер:  3,32 GB   |    Зарегистрирован:  4 года   |    Скачан:  11 раз

Полного источника не было: 4 месяца 12 дней

Сидов:  0  |  0 KB/s  ]   Личеров:  0  |  0 KB/s  ]

* - сиды/пиры с внешних источников

   
 
Автор Сообщение

garry Пол:Муж

07-Дек-2012 00:06

Тайна в его глазах / El secreto de sus ojos


Год выпуска: 2009
Жанр: триллер, драма, детектив
Страна: Аргентина , Испания
Режиссер: Хуан Хосе Кампанелла
В ролях: Рикардо Дарин, Соледад Вильямиль, Гильермо Франселла, Пабло Раго, Хавьер Годино, Карла Кеведо, Барбара Палладино, Руди Романо, Алехандра Абеленда, Марио Аларкон
Сюжет фильма:
Бенхамин Эспосито — судебный служащий, который решает написать роман об одном уголовном деле, в котором он был свидетелем и главным действующим лицом…

  • Мировая премьера: 13 августа 2009
  • Российская премьера: 30 сентября 2010, «Русский репортаж»


Качество видео: BDRip-AVC

Продолжительность: 02:09:15
Формат: MKV
Видео: x264, 1120x476, 2328 kbps
Аудио #1: русский, одноголосый закадровый [авторский, Сербин], AC3 5.1, 448 kbps
Аудио #2: испанский, оригинал, AC3 5.1, 448 kbps
Аудио #3: русский, многоголосый закадровый [профессиональный, R5], AC3 5.1, 448 kbps (отдельно)
Субтитры #1: тип: вшитые отключаемые, русский, формат: SRT
Субтитры #2: тип: вшитые отключаемые, английский, формат: SRT
Субтитры #3: тип: вшитые отключаемые, испанский, формат: SRT

Код:

General
Unique ID                                : 171301788944005537414057782396208295849 (0x80DF8644AD73F6D680ECC41BD69C2FA9)
Complete name                            : The Secret in Their Eyes 2009\The.Secret.in.Their.Eyes.2009.barm.mkv
Format                                   : Matroska
Format version                           : Version 2
File size                                : 2.91 GiB
Duration                                 : 2h 9mn
Overall bit rate                         : 3 226 Kbps
Movie name                               : The Secret in Their Eyes 2009
Encoded date                             : UTC 2012-11-22 18:57:39
Writing application                      : mkvmerge v5.8.0 ('No Sleep / Pillow') built on Sep  2 2012 15:37:04
Writing library                          : libebml v1.2.3 + libmatroska v1.3.0
Attachment                               : Yes

Video
ID                                       : 1
Format                                   : AVC
Format/Info                              : Advanced Video Codec
Format profile                           : High@L4.0
Format settings, CABAC                   : Yes
Format settings, ReFrames                : 14 frames
Codec ID                                 : V_MPEG4/ISO/AVC
Duration                                 : 2h 9mn
Bit rate                                 : 2 328 Kbps
Width                                    : 1 120 pixels
Height                                   : 476 pixels
Display aspect ratio                     : 2.35:1
Frame rate                               : 23.976 fps
Color space                              : YUV
Chroma subsampling                       : 4:2:0
Bit depth                                : 8 bits
Scan type                                : Progressive
Bits/(Pixel*Frame)                       : 0.182
Stream size                              : 2.05 GiB (70%)
Title                                    : The Secret in Their Eyes
Writing library                          : x264 core 129 r2230 1cffe9f
Encoding settings                        : cabac=1 / ref=14 / deblock=1:-2:-1 / analyse=0x3:0x133 / me=umh / subme=10 / psy=1 / psy_rd=1.07:0.00 / mixed_ref=1 / me_range=32 /
 chroma_me=1 / trellis=2 / 8x8dct=1 / cqm=0 / deadzone=21,11 / fast_pskip=0 / chroma_qp_offset=-2 / threads=6 / lookahead_threads=1 / sliced_threads=0 / nr=0 / decimate=0 /
 interlaced=0 / bluray_compat=0 / constrained_intra=0 / bframes=13 / b_pyramid=2 / b_adapt=2 / b_bias=0 / direct=3 / weightb=1 / open_gop=0 / weightp=2 / keyint=250 / keyint_min=23 /
 scenecut=40 / intra_refresh=0 / rc_lookahead=60 / rc=2pass / mbtree=0 / bitrate=2328 / ratetol=1.0 / qcomp=0.70 / qpmin=0 / qpmax=69 / qpstep=4 / cplxblur=20.0 / qblur=0.5 /
 vbv_maxrate=25000 / vbv_bufsize=31250 / nal_hrd=none / ip_ratio=1.40 / pb_ratio=1.25 / aq=2:0.80 / zones=180856,185951,q=30
Language                                 : English
Default                                  : Yes
Forced                                   : No
Matrix coefficients                      : BT.709-5, BT.1361, IEC 61966-2-4 709, SMPTE RP177

Audio #1
ID                                       : 2
Format                                   : AC-3
Format/Info                              : Audio Coding 3
Mode extension                           : CM (complete main)
Codec ID                                 : A_AC3
Duration                                 : 2h 9mn
Bit rate mode                            : Constant
Bit rate                                 : 448 Kbps
Channel(s)                               : 6 channels
Channel positions                        : Front: L C R, Side: L R, LFE
Sampling rate                            : 48.0 KHz
Bit depth                                : 16 bits
Compression mode                         : Lossy
Stream size                              : 414 MiB (14%)
Title                                    : J.Serbin, 48 kHz, AC3, 3/2 (L,C,R,l,r) + LFE ch, ~ 448.00 kbps
Language                                 : Russian
Default                                  : Yes
Forced                                   : No

Audio #2
ID                                       : 3
Format                                   : AC-3
Format/Info                              : Audio Coding 3
Mode extension                           : CM (complete main)
Codec ID                                 : A_AC3
Duration                                 : 2h 9mn
Bit rate mode                            : Constant
Bit rate                                 : 448 Kbps
Channel(s)                               : 6 channels
Channel positions                        : Front: L C R, Side: L R, LFE
Sampling rate                            : 48.0 KHz
Bit depth                                : 16 bits
Compression mode                         : Lossy
Stream size                              : 414 MiB (14%)
Title                                    : Original, 48 kHz, AC3, 3/2 (L,C,R,l,r) + LFE ch, ~ 448.00 kbps
Language                                 : Spanish
Default                                  : No
Forced                                   : No

Text #1
ID                                       : 4
Format                                   : UTF-8
Codec ID                                 : S_TEXT/UTF8
Codec ID/Info                            : UTF-8 Plain Text
Title                                    : spесtrus (пpи учaстии aist)
Language                                 : Russian
Default                                  : No
Forced                                   : No

Text #2
ID                                       : 5
Format                                   : UTF-8
Codec ID                                 : S_TEXT/UTF8
Codec ID/Info                            : UTF-8 Plain Text
Language                                 : Spanish
Default                                  : No
Forced                                   : No

Text #3
ID                                       : 6
Format                                   : UTF-8
Codec ID                                 : S_TEXT/UTF8
Codec ID/Info                            : UTF-8 Plain Text
Language                                 : English
Default                                  : No
Forced                                   : No

Menu
00:00:00.000                             : en:Chapter 1
00:10:03.060                             : en:Chapter 2
00:18:46.917                             : en:Chapter 3
00:26:59.701                             : en:Chapter 4
00:33:27.588                             : en:Chapter 5
00:40:40.396                             : en:Chapter 6
00:47:17.334                             : en:Chapter 7
00:55:41.421                             : en:Chapter 8
01:00:35.840                             : en:Chapter 9
01:05:49.946                             : en:Chapter 10
01:16:23.579                             : en:Chapter 11
01:25:10.980                             : en:Chapter 12
01:34:59.110                             : en:Chapter 13
01:39:37.596                             : en:Chapter 14
01:46:36.264                             : en:Chapter 15
01:55:26.544                             : en:Chapter 16
Семпл: http://multi-up.com/794066

Релиз группы:

picpicpic
Для увеличения картинки щелкните мышкой по превью

Этот торрент недоступен для скачивания без регистрации, однако доступен по публичной magnet-ссылке (источники с публичных трекеров). Перед использованием ссылки прочтите, пожалуйста Пользовательское соглашение, а также как можно дольше оставайтесь на раздаче! Для того, чтобы скачать сам торрент-файл (который видит больше источников), а также для того, чтобы поблагодарить релизера, вам необходимо зарегистрироваться. Если регистрироваться лень - вы можете также попробовать скачать релиз по нашим партнерским ссылкам ниже.

[underverse.su].t21919.torrent
Трекер: Зарегистрирован   [ 07.12.2012 00:06 ]  

Статус: проверено (by garry at 07.12.2012 00:06)
Поблагодарили: пока никто не поблагодарил...
Тип торрента: публичный - доступные источники с открытых трекеров: 
Размер: 3,32 GB (занимает 0,76 DVDR, для записи нужно 1 болванка DVDR/RW)
 
 

Яндекс.Метрика powered by Sphinx


В Н И М А Н И Е
Сайт не распространяет и не хранит электронные версии произведений, а лишь бесплатно и без коммерческой выгоды (не требуя взамен платы,
SMS и т.д.) предоставляет доступ к создаваемому пользователями каталогу ссылок на торрент-файлы, которые содержат только списки хеш-сумм.
Убедительная просьба с жалобами обращаться напрямую к пользователю, разместившему торрент файл.

Вверх