Loading...
Error

Невыносимая жестокость / Intolerable Cruelty (Джоэл Коэн, Итан Коэн) [2003 г., комедия, криминал, BDRip-AVC] Dub + Original

Статистика раздачи
Размер:  2,91 GB   |    Зарегистрирован:  3 года 11 месяцев   |    Скачан:  8 раз

Полного источника не было: 7 месяцев

Сидов:  0  |  0 KB/s  ]   Личеров:  0  |  0 KB/s  ]

* - сиды/пиры с внешних источников

   
 
Автор Сообщение

garry Пол:Муж

06-Дек-2012 23:50

Невыносимая жестокость / Intolerable Cruelty


Год выпуска: 2003
Жанр: комедия, криминал
Страна: США
Режиссер: Джоэл Коэн, Итан Коэн
В ролях: Джордж Клуни, Кэтрин Зета-Джонс, Джеффри Раш, Седрик «Развлекатель», Эдвард Херрманн, Пол Адельштейн, Ричард Дженкинс, Билли Боб Торнтон, Джулия Даффи, Джонатан Хэдари
Сюжет фильма:
У знаменитого адвоката Майлза Масси есть все — слава, деньги, благодарная клиентура и брачный контракт, названный в его честь. Но Майлз чувствует, что ему не хватает поединка с достойным врагом. Судьба сводит его с соблазнительной Мэрилин Рексрот, брачной аферисткой, которая собирается развестись с его клиентом и при этом значительно пополнить свой банковский счет.
И пусть в этот раз ей не повезло — она тут же находит новую жертву, нефтяного магната Дойла, и начинает игру, в которой Майлзу придется еще не раз удивляться…

  • Мировая премьера: 2 сентября 2003
  • Российская премьера: 20 ноября 2003, «Парадиз»


Качество видео: BDRip-AVC

Продолжительность: 01:39:34
Формат: MKV
Видео: x264, 1056x572, 3288 kbps
Аудио #1: русский, дублированный [лицензия], AC3 5.1, 448 kbps
Аудио #2: английский, оригинал, AC3 5.1, 448 kbps
Субтитры #1: тип: вшитые отключаемые, русский, формат: SRT
Субтитры #2: тип: вшитые отключаемые, английский, формат: SRT
Субтитры #3: тип: вшитые отключаемые, английский SDH, формат: SRT

Код:

General
Unique ID                                : 181804908327611798029257569150994593273 (0x88C65A08E93CF825AD0F9873BE35B5F9)
Complete name                            : Intolerable.Cruelty.2003.barm.mkv
Format                                   : Matroska
Format version                           : Version 2
File size                                : 2.91 GiB
Duration                                 : 1h 39mn
Overall bit rate                         : 4 186 Kbps
Movie name                               : Intolerable Cruelty 2003
Encoded date                             : UTC 2012-11-22 17:11:52
Writing application                      : mkvmerge v5.8.0 ('No Sleep / Pillow') built on Sep  2 2012 15:37:04
Writing library                          : libebml v1.2.3 + libmatroska v1.3.0
Attachment                               : Yes

Video
ID                                       : 1
Format                                   : AVC
Format/Info                              : Advanced Video Codec
Format profile                           : High@L4.0
Format settings, CABAC                   : Yes
Format settings, ReFrames                : 12 frames
Codec ID                                 : V_MPEG4/ISO/AVC
Duration                                 : 1h 39mn
Bit rate                                 : 3 288 Kbps
Width                                    : 1 056 pixels
Height                                   : 572 pixels
Display aspect ratio                     : 16:9
Frame rate                               : 23.976 fps
Color space                              : YUV
Chroma subsampling                       : 4:2:0
Bit depth                                : 8 bits
Scan type                                : Progressive
Bits/(Pixel*Frame)                       : 0.227
Stream size                              : 2.23 GiB (77%)
Title                                    : Intolerable Cruelty
Writing library                          : x264 core 129 r2230 1cffe9f
Encoding settings                        : cabac=1 / ref=12 / deblock=1:-2:-2 / analyse=0x3:0x133 / me=umh / subme=10 / psy=1 / psy_rd=1.05:0.03 / mixed_ref=1 / me_range=32 /
 chroma_me=1 / trellis=2 / 8x8dct=1 / cqm=0 / deadzone=21,11 / fast_pskip=0 / chroma_qp_offset=-3 / threads=6 / lookahead_threads=1 / sliced_threads=0 / nr=0 / decimate=0 /
 interlaced=0 / bluray_compat=0 / constrained_intra=0 / bframes=11 / b_pyramid=2 / b_adapt=2 / b_bias=0 / direct=3 / weightb=1 / open_gop=0 / weightp=2 / keyint=250 / keyint_min=23 /
 scenecut=40 / intra_refresh=0 / rc_lookahead=60 / rc=2pass / mbtree=0 / bitrate=3288 / ratetol=1.0 / qcomp=0.60 / qpmin=0 / qpmax=69 / qpstep=4 / cplxblur=20.0 / qblur=0.5 /
 vbv_maxrate=25000 / vbv_bufsize=31250 / nal_hrd=none / ip_ratio=1.40 / pb_ratio=1.30 / aq=2:0.90 / zones=136611,143235,q=30
Language                                 : English
Default                                  : Yes
Forced                                   : No
Matrix coefficients                      : BT.709-5, BT.1361, IEC 61966-2-4 709, SMPTE RP177

Audio #1
ID                                       : 2
Format                                   : AC-3
Format/Info                              : Audio Coding 3
Mode extension                           : CM (complete main)
Codec ID                                 : A_AC3
Duration                                 : 1h 39mn
Bit rate mode                            : Constant
Bit rate                                 : 448 Kbps
Channel(s)                               : 6 channels
Channel positions                        : Front: L C R, Side: L R, LFE
Sampling rate                            : 48.0 KHz
Bit depth                                : 16 bits
Compression mode                         : Lossy
Stream size                              : 319 MiB (11%)
Title                                    : Dubljaz, 48 kHz, AC3, 3/2 (L,C,R,l,r) + LFE ch, ~ 448.00 kbps
Language                                 : Russian
Default                                  : Yes
Forced                                   : No

Audio #2
ID                                       : 3
Format                                   : AC-3
Format/Info                              : Audio Coding 3
Mode extension                           : CM (complete main)
Codec ID                                 : A_AC3
Duration                                 : 1h 39mn
Bit rate mode                            : Constant
Bit rate                                 : 448 Kbps
Channel(s)                               : 6 channels
Channel positions                        : Front: L C R, Side: L R, LFE
Sampling rate                            : 48.0 KHz
Bit depth                                : 16 bits
Compression mode                         : Lossy
Stream size                              : 319 MiB (11%)
Title                                    : Original, 48 kHz, AC3, 3/2 (L,C,R,l,r) + LFE ch, ~ 448.00 kbps
Language                                 : English
Default                                  : No
Forced                                   : No

Text #1
ID                                       : 4
Format                                   : UTF-8
Codec ID                                 : S_TEXT/UTF8
Codec ID/Info                            : UTF-8 Plain Text
Language                                 : Russian
Default                                  : No
Forced                                   : No

Text #2
ID                                       : 5
Format                                   : UTF-8
Codec ID                                 : S_TEXT/UTF8
Codec ID/Info                            : UTF-8 Plain Text
Language                                 : English
Default                                  : No
Forced                                   : No

Text #3
ID                                       : 6
Format                                   : UTF-8
Codec ID                                 : S_TEXT/UTF8
Codec ID/Info                            : UTF-8 Plain Text
Title                                    : SDH
Language                                 : English
Default                                  : No
Forced                                   : No

Menu
00:00:00.000                             : en:1. Pool Boy [Main Titles]
00:08:48.277                             : en:2. Massaging the Truth
00:12:04.140                             : en:3. David and Goliath
00:14:59.023                             : en:4. A Job Well Done
00:19:23.370                             : en:5. The War Room
00:22:15.959                             : en:6. Negotiation
00:26:57.574                             : en:7. The Real Goal
00:33:02.814                             : en:8. Tenzing Norgay
00:41:45.711                             : en:9. Just the Girls
00:43:51.211                             : en:10. Inner Sanctum
00:46:01.800                             : en:11. The New Guy
00:54:06.952                             : en:12. Eating His Words
00:59:42.745                             : en:13. The Moral Universe
01:06:11.759                             : en:14. Wee Kirk
01:10:48.619                             : en:15. Keynote Address
01:16:49.896                             : en:16. Soap
01:19:34.811                             : en:17. Second Thoughts
01:23:19.411                             : en:18. Last Train Ride
01:25:34.420                             : en:19. Canceling the Contract
01:30:34.637                             : en:20. A Hit [End Titles]
Семпл: http://multi-up.com/794077

Релиз группы:

pic pic pic
Для увеличения картинки щелкните мышкой по превью

Этот торрент недоступен для скачивания без регистрации, однако доступен по публичной magnet-ссылке (источники с публичных трекеров). Перед использованием ссылки прочтите, пожалуйста Пользовательское соглашение, а также как можно дольше оставайтесь на раздаче! Для того, чтобы скачать сам торрент-файл (который видит больше источников), а также для того, чтобы поблагодарить релизера, вам необходимо зарегистрироваться. Если регистрироваться лень - вы можете также попробовать скачать релиз по нашим партнерским ссылкам ниже.

[underverse.su].t21918.torrent
Трекер: Зарегистрирован   [ 06.12.2012 23:50 ]  

Статус: проверено (by garry at 06.12.2012 23:51)
Поблагодарили: пока никто не поблагодарил...
Тип торрента: публичный - доступные источники с открытых трекеров: 
Размер: 2,91 GB (занимает 2/3 DVDR, для записи нужно 1 болванка DVDR/RW)
 
 
Похожие темы
Форум Тема Автор Торрент Отв. Посл. сооб.
Зарубежное кино [HDDVDRip / BDRip / WEB-DL / HDTV 1080/720р] Невыносимая жестокость / Intolerable Cruelty (Джоэл Коэн, Итан Коэн) [2003 г., Мелодрама, Комедия, Криминал, BDRip 1080p] Dub (RUS) + Original (ENG) + Subs (RUS, ENG) Ведьмочка
5 | 1

0 | 456

1

20.08.2014 22:12

Зарубежное кино [HDDVDRip / BDRip / WEB-DL / HDTV 1080/720р] Невыносимая жестокость / Intolerable Cruelty (Джоэл Коэн, Итан Коэн) [2003 г., Мелодрама, Комедия, Криминал, BDRip 720p] Dub (RUS) Ведьмочка
2 | 0

0 | 535

9

20.08.2014 22:26

Зарубежное кино [HDDVDRip / BDRip / WEB-DL / HDTV 1080/720р] Невыносимая жестокость / Intolerable Cruelty (Джоэл Коэн, Итан Коэн) [2003 г., Мелодрама, Комедия, Криминал, BDRip 1080p] Dub (RUS) + Original (ENG) + Subs (RUS, ENG) Ведьмочка
1 | 1

0 | 505

6

20.08.2014 22:52


Яндекс.Метрика powered by Sphinx


В Н И М А Н И Е
Сайт не распространяет и не хранит электронные версии произведений, а лишь бесплатно и без коммерческой выгоды (не требуя взамен платы,
SMS и т.д.) предоставляет доступ к создаваемому пользователями каталогу ссылок на торрент-файлы, которые содержат только списки хеш-сумм.
Убедительная просьба с жалобами обращаться напрямую к пользователю, разместившему торрент файл.

Вверх