Loading...
Error

Сладкая женщина (Владимир Фетин) [1976 г., мелодрама, DVDRip-AVC] Original

Статистика раздачи
Размер:  1,47 GB   |    Зарегистрирован:  4 года   |    Скачан:  8 раз

Полного источника не было: 11 месяцев

Сидов:  0  |  0 KB/s  ]   Личеров:  0  |  0 KB/s  ]

* - сиды/пиры с внешних источников

   
 
Автор Сообщение

DarkAngel Пол:Муж

05-Дек-2012 18:20

Сладкая женщина


Год выпуска: 1976
Жанр: мелодрама
Страна: СССР
Режиссер: Владимир Фетин
В ролях: Наталья Гундарева - Анна Доброхотова Светлана Карпинская - Лидия Николаевна Олег Янковский - Тихон Соколов Пётр Вельяминов - Николай Егорович Римма Маркова - мать Анны Доброхотовой Георгий Корольчук - Ларик Шубкин Нина Алисова - Раиса Ивановна , мать Ларика Федор Никитин - Шубкин, отец Ларика Саша Григорик - Юра в детстве Радий Афанасьев - член президиума Людмила Егорова - Клавдия Надежда Михайлова - Ульяна Батурина
Сюжет фильма:
История простой женщины Анны Доброхотовой. Выросшая в деревне, она навсегда сохранила простонародный говорок, легкость в общении с людьми, определенную наивность и неутолимую жажду быть счастливой - иметь множество замечательных, дорогостоящих вещей. Ведь "сладкой женщине" казалось, что только они способны подарить ей счастье…
Качество видео: DVDRip-AVC

Продолжительность: 01:33:02
Формат: MKV
Видео: x264, Анаморф 716@1018x432, Display aspect ratio 2.35:1, 1819 kbps
Аудио: русский, оригинал, AC3 5.1, 448 kbps

Код:

General
Unique ID : 233339276460161970622643845000494700984 (0xAF8B828DA1B50CCC84BCE11A411DD9B8)
Complete name : Сладкая женщина.1976.mkv
Format : Matroska
Format version : Version 2
File size : 1.47 GiB
Duration : 1h 33mn
Overall bit rate : 2 269 Kbps
Encoded date : UTC 2012-08-10 13:51:31
Writing application : mkvmerge v5.7.0 ('The Whirlwind') built on Jul 8 2012 20:08:51
Writing library : libebml v1.2.3 + libmatroska v1.3.0

Video
ID : 1
Format : AVC
Format/Info : Advanced Video Codec
Format profile : High@L4.1
Format settings, CABAC : Yes
Format settings, ReFrames : 16 frames
Codec ID : V_MPEG4/ISO/AVC
Duration : 1h 33mn
Bit rate : 1 819 Kbps
Width : 716 pixels
Height : 432 pixels
Display aspect ratio : 2.35:1
Original display aspect ratio : 2.35:1
Frame rate : 25.000 fps
Color space : YUV
Chroma subsampling : 4:2:0
Bit depth : 8 bits
Scan type : Progressive
Bits/(Pixel*Frame) : 0.235
Stream size : 1.15 GiB (78%)
Title : Сладкая женщина.1976
Writing library : x264 core 124 r2197kMod 69a0443
Encoding settings : cabac=1 / ref=16 / deblock=1:-1:-1 / analyse=0x3:0x133 / me=umh / subme=11 / psy=1 / fade_compensate=0.00 / psy_rd=1.00:0.15 / mixed_ref=1 / me_range=48 / chroma_me=1 / trellis=2 / 8x8dct=1 / cqm=0 / deadzone=21,11 / fast_pskip=0 / chroma_qp_offset=-3 / threads=12 / sliced_threads=0 / nr=0 / decimate=0 / interlaced=0 / bluray_compat=0 / constrained_intra=0 / bframes=8 / b_pyramid=2 / b_adapt=2 / b_bias=0 / direct=3 / weightb=1 / open_gop=0 / weightp=2 / keyint=250 / keyint_min=25 / scenecut=40 / intra_refresh=0 / rc_lookahead=60 / rc=2pass / mbtree=1 / bitrate=1819 / ratetol=1.0 / qcomp=0.60 / qpmin=0 / qpmax=69 / qpstep=4 / cplxblur=20.0 / qblur=0.5 / vbv_maxrate=50000 / vbv_bufsize=62500 / nal_hrd=none / ip_ratio=1.40 / aq=1:1.10
Language : Russian
Default : Yes
Forced : No
Color primaries : BT.470-6 System B, BT.470-6 System G, BT.601-6 625, BT.1358 625, BT.1700 625 PAL, BT.1700 625 SECAM
Transfer characteristics : BT.470-6 System B, BT.470-6 System G
Matrix coefficients : BT.470-6 System B, BT.470-6 System G, BT.601-6 625, BT.1358 625, BT.1700 625 PAL, BT.1700 625 SECAM, IEC 61966-2-4 601

Audio
ID : 2
Format : AC-3
Format/Info : Audio Coding 3
Mode extension : CM (complete main)
Codec ID : A_AC3
Duration : 1h 33mn
Bit rate mode : Constant
Bit rate : 448 Kbps
Channel(s) : 6 channels
Channel positions : Front: L C R, Side: L R, LFE
Sampling rate : 48.0 KHz
Bit depth : 16 bits
Compression mode : Lossy
Stream size : 298 MiB (20%)
Title : Оригинал AC-3; 16 bit 48 Khz; 6ch 448 Kbps; CBR
Language : Russian
Default : Yes
Forced : No
Семпл: http://multi-up.com/744802

picpicpic
Для увеличения картинки щелкните мышкой по превью

Этот торрент недоступен для скачивания без регистрации, однако доступен по публичной magnet-ссылке (источники с публичных трекеров). Перед использованием ссылки прочтите, пожалуйста Пользовательское соглашение, а также как можно дольше оставайтесь на раздаче! Для того, чтобы скачать сам торрент-файл (который видит больше источников), а также для того, чтобы поблагодарить релизера, вам необходимо зарегистрироваться. Если регистрироваться лень - вы можете также попробовать скачать релиз по нашим партнерским ссылкам ниже.

[underverse.su].t21853.torrent
Трекер: Зарегистрирован   [ 05.12.2012 18:20 ]  

Статус: проверено (by garry at 05.12.2012 19:45)
Поблагодарили: 1 человек
Тип торрента: публичный - доступные источники с открытых трекеров: 
Размер: 1,47 GB (занимает 0,34 DVDR, для записи нужно 1 болванка DVDR/RW)
 
 

Яндекс.Метрика powered by Sphinx


В Н И М А Н И Е
Сайт не распространяет и не хранит электронные версии произведений, а лишь бесплатно и без коммерческой выгоды (не требуя взамен платы,
SMS и т.д.) предоставляет доступ к создаваемому пользователями каталогу ссылок на торрент-файлы, которые содержат только списки хеш-сумм.
Убедительная просьба с жалобами обращаться напрямую к пользователю, разместившему торрент файл.

Вверх