Loading...
Error

А что потом? / Ya Sonra? ( Озджан Дениз / Ozcan Deniz, Баран Озджайлан / Baran Ozcaylan) [2011 г., мелодрама, комедия, DVDRip] VO Kenum (Владислав Данилов)

Статистика раздачи
Размер:  697 MB   |    Зарегистрирован:  4 года   |    Скачан:  7 раз

Полного источника не было: 4 месяца 29 дней

Сидов:  0  |  0 KB/s  ]   Личеров:  0  |  0 KB/s  ]

* - сиды/пиры с внешних источников

   
 
Автор Сообщение

DarkAngel Пол:Муж

05-Дек-2012 18:09

А что потом? / Ya Sonra?


Год выпуска: 2011
Жанр: мелодрама, комедия
Страна: Турция
Режиссер: Озджан Дениз / Özcan Deniz, Баран Озджайлан / Baran Ozcaylan
В ролях: Озджан Дениз, Дениз Чакыр, Барыш Фалай, Наз Эльмас и др.
Сюжет фильма:
Адем женат на Дидем уже 7-ой год. Он несколько раз пытался попробовать свои силы в торговле, но успехов достичь ему не удалось, поэтому он решил выше головы не прыгать.И продолжил работать ветеринаром. Он сам втянул себя в рутинную жизнь, состоящую из провождения времени с друзьями, походов на матчи, занятий музыкой и такой же рутинной любви. Его эгоизм и то, что он не замечал предупреждений жены, которая всегда оставалась для него на втором плане, станет для него настоящим кошмаром.
И его ожидает большое испытание, чтобы он сам вспомнил, как сильно любит свою жену.

Качество видео: DVDRip

Продолжительность: 01:41:48
Формат: AVI
Видео: XviD, 640x352 (1.82:1), 819 kbps
Аудио: русский, одноголосый закадровый [любительский Kenum (Владислав Данилов)], MP3 2.0, 128 kbps

Код:

D:\ОЗВУЧКА\ГОТОВОЕ\ВЛАД\A.Chto.Potom.2011.DVDRip.ViruseProject.avi
General
Complete name : D:\ОЗВУЧКА\ГОТОВОЕ\ВЛАД\A.Chto.Potom.2011.DVDRip.ViruseProject.avi
Format : AVI
Format/Info : Audio Video Interleave
File size : 697 MiB
Duration : 1h 41mn
Overall bit rate : 957 Kbps
Writing application : VirtualDubMod 1.5.10.2 (build 2540/release)
Writing library : VirtualDubMod build 2540/release
Video #0
ID : 0
Format : MPEG-4 Visual
Format profile : Advanced Simple@L5
Format settings, BVOP : 2
Format settings, QPel : No
Format settings, GMC : No warppoints
Format settings, Matrix : Default (MPEG)
Codec ID : XVID
Codec ID/Hint : XviD
Duration : 1h 41mn
Bit rate : 820 Kbps
Width : 640 pixels
Height : 352 pixels
Display aspect ratio : 16:9
Frame rate : 25.000 fps
Color space : YUV
Chroma subsampling : 4:2:0
Bit depth : 8 bits
Scan type : Progressive
Compression mode : Lossy
Bits/(Pixel*Frame) : 0.146
Stream size : 597 MiB (86%)
Writing library : XviD 1.2.1 (UTC 2008-12-04)
Audio #1
ID : 1
Format : MPEG Audio
Format version : Version 1
Format profile : Layer 3
Codec ID : 55
Codec ID/Hint : MP3
Duration : 1h 41mn
Bit rate mode : Constant
Bit rate : 128 Kbps
Channel(s) : 2 channels
Sampling rate : 48.0 KHz
Compression mode : Lossy
Stream size : 93.2 MiB (13%)
Alignment : Aligned on interleaves
Interleave, duration : 40 ms (1.00 video frame)
Interleave, preload duration : 504 ms
Семпл: http://multi-up.com/798764

picpicpic
Для увеличения картинки щелкните мышкой по превью

Этот торрент недоступен для скачивания без регистрации, однако доступен по публичной magnet-ссылке (источники с публичных трекеров). Перед использованием ссылки прочтите, пожалуйста Пользовательское соглашение, а также как можно дольше оставайтесь на раздаче! Для того, чтобы скачать сам торрент-файл (который видит больше источников), а также для того, чтобы поблагодарить релизера, вам необходимо зарегистрироваться. Если регистрироваться лень - вы можете также попробовать скачать релиз по нашим партнерским ссылкам ниже.

[underverse.su].t21852.torrent
Трекер: Зарегистрирован   [ 05.12.2012 18:09 ]  

Статус: проверено (by garry at 05.12.2012 19:45)
Поблагодарили: пока никто не поблагодарил...
Тип торрента: публичный - доступные источники с открытых трекеров: 
Размер: 697 MB (занимает 0,16 DVDR, для записи нужно 1 болванка DVDR/RW)
 
 
Похожие темы
Форум Тема Автор Торрент Отв. Посл. сооб.
Зарубежное кино [DVDRip, Low-Res HDRip, и т.д.] А что потом? / Ya Sonra? (Озджан Дениз, Баран Озджайлан) [2011, драма, мелодрама, комедия, DVDRip] VO + Orig Garnett
3 | 0

0 | 732

7

24.12.2012 18:51


Яндекс.Метрика powered by Sphinx


В Н И М А Н И Е
Сайт не распространяет и не хранит электронные версии произведений, а лишь бесплатно и без коммерческой выгоды (не требуя взамен платы,
SMS и т.д.) предоставляет доступ к создаваемому пользователями каталогу ссылок на торрент-файлы, которые содержат только списки хеш-сумм.
Убедительная просьба с жалобами обращаться напрямую к пользователю, разместившему торрент файл.

Вверх