Loading...
Error

Родина / Homeland / Сезон: 1 / Серии: 1-12 (12) (Говард Гордон, Алекс Ганза, Гидеон Рэфф) [2011 г., Триллер, HDTVRip 720p] LostFilm

Статистика раздачи
Размер:  15,36 GB   |    Зарегистрирован:  4 года   |    Скачан:  5 раз

Полного источника не было: 9 месяцев

Сидов:  0  |  0 KB/s  ]   Личеров:  0  |  0 KB/s  ]

* - сиды/пиры с внешних источников

   
 
Автор Сообщение

yuriy1920 Пол:Муж

05-Дек-2012 10:59

Родина / Homeland Полный 1 Сезон / Серии 1-12 (12)


Год выпуска: 2011
Жанр: Триллер
Страна: США
Режиссер: Говард Гордон, Алекс Ганза, Гидеон Рэфф
В ролях: Клэр Дэйнс, Дэмиен Льюис, Мэнди Пэтинкин, Морена Бэккарин, Дэвид Хэйрвуд, Диего Клэттенхофф, и др.
Сюжет фильма:
Аналитик ЦРУ Кэрри Мэтисон во время операции в Ираке выясняет, что американский военнопленный завербован Аль-Каедой. Вскоре после этого отряд спецназа Дельта во время зачистки обнаруживает сержанта морской пехоты Николаса Броуди, который числился пропавшим без вести с 2003-го года. Понимая, что доказать виновность Броуди будет практически невозможно, Кэрри обращается за помощью к своему наставнику Солу Беренсону. Вместе они будут вести расследование, чтобы предотвратить очередной теракт на территории США.
Качество видео: HDTVRip 720p

Продолжительность: ~00:55:00 x 12
Формат: mkv
Видео: MPEG-4 AVC (H.264), 1280x720, 3014 kbps
Аудио #1: русский, многоголосый закадровый [профессиональный, LostFilm], AC3 2.0, 192 kbps
Аудио #2: английский, оригинал, AC3 5.1, 384 kbps

Код:

General
Complete name                    : E:\торрент\Homeland S01 HDTV 720p (LostFilm)\Homeland S01E01 HDTV 720p (LostFilm).mkv
Format                           : Matroska
File size                        : 1.40 GiB
Duration                         : 54mn 42s
Overall bit rate                 : 3 663 Kbps
Movie name                       : Homeland (2011) S01E01 - Pilot - @ - Gater -
Encoded date                     : UTC 2011-12-14 13:12:29
Writing application              : mkvmerge v4.0.0 ('The Stars were mine') сборка от Jun  6 2010 16:18:42
Writing library                  : libebml v1.0.0 + libmatroska v1.0.0

Video
ID                               : 1
Format                           : AVC
Format/Info                      : Advanced Video Codec
Format profile                   : High@L4.1
Format settings, CABAC           : Yes
Format settings, ReFrames        : 5 frames
Codec ID                         : V_MPEG4/ISO/AVC
Duration                         : 54mn 38s
Bit rate                         : 3 014 Kbps
Width                            : 1 280 pixels
Height                           : 720 pixels
Display aspect ratio             : 16/9
Frame rate                       : 23.976 fps
Resolution                       : 24 bits
Colorimetry                      : 4:2:0
Scan type                        : Progressive
Bits/(Pixel*Frame)               : 0.136
Stream size                      : 1.15 GiB (82%)
Title                            : Homeland (2011) S01E01 - Pilot - @ - Gater -

Audio #1
ID                               : 2
Format                           : AC-3
Format/Info                      : Audio Coding 3
Codec ID                         : A_AC3
Duration                         : 54mn 42s
Bit rate mode                    : Constant
Bit rate                         : 192 Kbps
Channel(s)                       : 2 channels
Channel positions                : L R
Sampling rate                    : 48.0 KHz
Stream size                      : 75.1 MiB (5%)
Title                            : AC3 DD 2.0 48.0 kHz @ 192 kbps - Студия "Кравец" Для LostFilm.TV
Language                         : Russian

Audio #2
ID                               : 3
Format                           : AC-3
Format/Info                      : Audio Coding 3
Codec ID                         : A_AC3
Duration                         : 54mn 42s
Bit rate mode                    : Constant
Bit rate                         : 384 Kbps
Channel(s)                       : 6 channels
Channel positions                : Front: L C R, Surround: L R, LFE
Sampling rate                    : 48.0 KHz
Stream size                      : 150 MiB (10%)
Title                            : AC3 DD 5.1 48.0 kHz @ 384 kbps - Original

Релиз группы:

picpicpic
Для увеличения картинки щелкните мышкой по превью

Этот торрент недоступен для скачивания без регистрации, однако доступен по публичной magnet-ссылке (источники с публичных трекеров). Перед использованием ссылки прочтите, пожалуйста Пользовательское соглашение, а также как можно дольше оставайтесь на раздаче! Для того, чтобы скачать сам торрент-файл (который видит больше источников), а также для того, чтобы поблагодарить релизера, вам необходимо зарегистрироваться. Если регистрироваться лень - вы можете также попробовать скачать релиз по нашим партнерским ссылкам ниже.

[underverse.su].t21845.torrent
Трекер: Зарегистрирован   [ 05.12.2012 10:59 ]  

Статус: проверено (by garry at 05.12.2012 16:34)
Поблагодарили: пока никто не поблагодарил...
Тип торрента: публичный - доступные источники с открытых трекеров: 
Размер: 15,36 GB (занимает 3,51 DVDR, для записи нужно 4 болванки DVDR/RW)
 
 
Похожие темы
Форум Тема Автор Торрент Отв. Посл. сооб.
Зарубежные сериалы [BD / Remux / BDRip / WEB-DL / HDTV 1080/720р] Родина / Homeland / Сезон: 2 / Серии: 1-12 (12) (Майкл Куэста, Кларк Джонсон, Джеффри Начманофф) [2012 г., Триллер, HDTVRip 720p] CasStudio yuriy1920
0 | 0

2 | 1883

1

19.12.2012 13:02

Зарубежные сериалы [BD / Remux / BDRip / WEB-DL / HDTV 1080/720р] Родина / Homeland / Season 5 (1-12 серии из 12) (Майкл Куэста) [2015 г., Триллер, драма, детектив, HDTVRip 1080p] MVO (Amedia) + Original romeoexpert
5 | 4

1 | 854

12

26.10.2016 16:40


Яндекс.Метрика powered by Sphinx


В Н И М А Н И Е
Сайт не распространяет и не хранит электронные версии произведений, а лишь бесплатно и без коммерческой выгоды (не требуя взамен платы,
SMS и т.д.) предоставляет доступ к создаваемому пользователями каталогу ссылок на торрент-файлы, которые содержат только списки хеш-сумм.
Убедительная просьба с жалобами обращаться напрямую к пользователю, разместившему торрент файл.

Вверх