Loading...
Error

Эволюция Борна / The Bourne Legacy (Тони Гилрой) [2012 г., боевик, триллер, детектив, приключения, BDRip] Dub HQ Underverse

Статистика раздачи
Размер:  2,17 GB   |    Зарегистрирован:  4 года   |    Скачан:  110 раз

Полного источника не было: 1 день 16 часов

Сидов:  0  |  0 KB/s  ]   Личеров:  0  |  0 KB/s  ]

* - сиды/пиры с внешних источников

   
 
Автор Сообщение

HQ Underverse 

04-Дек-2012 23:04

Эволюция Борна / The Bourne Legacy


Год выпуска: 2012
Жанр: боевик, триллер, детектив, приключения
Страна: США
Режиссер: Тони Гилрой
В ролях: Джереми Реннер, Рейчел Вайс, Эдвард Нортон, Джоан Аллен, Альберт Финни, Скотт Гленн, Стейси Кич, Донна Мерфи, Майкл Чернус, Кори Столл
Сюжет фильма:
В игре всегда несколько фигур. Одна из них — Джейсон Борн, другая — совершенный агент Аарон Кросс. Их возможности безграничны. Но даже у идеального оружия бывают сбои…

  • Мировая премьера: 30 июля 2012
  • Российская премьера: 30 августа 2012, «UPI»


Качество видео: BDRip [The Bourne Legacy 2012 1080p Blu-Ray AVC DTS-HD MA 7.1-HDChina]

Продолжительность: 02:15:02
Формат: AVI
Видео: XviD, 720x304, 1905 kbps
Аудио #1: русский, дублированный [лицензия BD CEE], AC3 5.1, 384 kbps
Аудио #2: английский, оригинал, AC3 5.1, 384 kbps (отдельно)
Субтитры #1: тип: внешние, русский Full, формат: SRT
Субтитры #2: тип: внешние, русский Forced, формат: SRT
Субтитры #3: тип: внешние, английский Full, формат: SRT
Субтитры #4: тип: внешние, английский SDH, формат: SRT
Субтитры #5: тип: внешние, английский Color SDH, формат: SRT

Код:

General
Complete name                            : D:\Video\Movies\Releases\The.Bourne.Legacy.2012.BDRip.XviD.AC3.Rus.D.HQ.Underverse.avi
Format                                   : AVI
Format/Info                              : Audio Video Interleave
Format profile                           : OpenDML
File size                                : 2.17 GiB
Duration                                 : 2h 15mn
Overall bit rate                         : 2 301 Kbps
Writing application                      : VirtualDubMod 1.5.10.2 (build 2540/release)
Writing library                          : VirtualDubMod build 2540/release

Video
ID                                       : 0
Format                                   : MPEG-4 Visual
Format profile                           : Advanced Simple@L5
Format settings, BVOP                    : 1
Format settings, QPel                    : No
Format settings, GMC                     : No warppoints
Format settings, Matrix                  : Custom
Muxing mode                              : Packed bitstream
Codec ID                                 : XVID
Codec ID/Hint                            : XviD
Duration                                 : 2h 15mn
Bit rate                                 : 1 905 Kbps
Width                                    : 720 pixels
Height                                   : 304 pixels
Display aspect ratio                     : 2.35:1
Frame rate                               : 23.976 fps
Color space                              : YUV
Chroma subsampling                       : 4:2:0
Bit depth                                : 8 bits
Scan type                                : Progressive
Compression mode                         : Lossy
Bits/(Pixel*Frame)                       : 0.363
Stream size                              : 1.80 GiB (83%)
Writing library                          : XviD 64

Audio
ID                                       : 1
Format                                   : AC-3
Format/Info                              : Audio Coding 3
Mode extension                           : CM (complete main)
Format settings, Endianness              : Big
Codec ID                                 : 2000
Duration                                 : 2h 14mn
Bit rate mode                            : Constant
Bit rate                                 : 384 Kbps
Channel(s)                               : 6 channels
Channel positions                        : Front: L C R, Side: L R, LFE
Sampling rate                            : 48.0 KHz
Bit depth                                : 16 bits
Compression mode                         : Lossy
Stream size                              : 371 MiB (17%)
Alignment                                : Split accross interleaves
Interleave, duration                     : 42 ms (1.00 video frame)
Interleave, preload duration             : 500 ms
Title                                    : The.Bourne.Legacy.2012.AC3.Rus.D.384.kbps.HQ.Underverse.ac3
Семпл: http://multi-up.com/799808

Релиз группы:

picpicpic
Для увеличения картинки щелкните мышкой по превью

Этот торрент недоступен для скачивания без регистрации, однако доступен по публичной magnet-ссылке (источники с публичных трекеров). Перед использованием ссылки прочтите, пожалуйста Пользовательское соглашение, а также как можно дольше оставайтесь на раздаче! Для того, чтобы скачать сам торрент-файл (который видит больше источников), а также для того, чтобы поблагодарить релизера, вам необходимо зарегистрироваться. Если регистрироваться лень - вы можете также попробовать скачать релиз по нашим партнерским ссылкам ниже.

[underverse.su].t21869.torrent
Трекер: Зарегистрирован   [ 06.12.2012 13:18 ]  

Статус: проверено (by garry at 06.12.2012 13:38)
Поблагодарили: 6 человек
Тип торрента: публичный - доступные источники с открытых трекеров: 
Размер: 2,17 GB (занимает 1/2 DVDR, для записи нужно 1 болванка DVDR/RW)
 
 
Похожие темы
Форум Тема Автор Торрент Отв. Посл. сооб.
Зарубежное кино [DVDRip, Low-Res HDRip, и т.д.] Эволюция Борна / The Bourne Legacy (Тони Гилрой) [2012 г., боевик, триллер, детектив, приключения, HDRip] Dub 90ytr90
2 | 0

1 | 805

91

06.12.2012 13:38

Зарубежное кино [DVDRip, Low-Res HDRip, и т.д.] Эволюция Борна / The Bourne Legacy (Тони Гилрой) [2012 г., боевик, триллер, детектив, приключения, HDRip] Dub 90ytr90
13 | 0

0 | 423

10

06.12.2012 20:47

Зарубежное кино [DVDRip, Low-Res HDRip, и т.д.] Эволюция Борна / The Bourne Legacy (Тони Гилрой / Tony Gilroy) [2012, боевик, триллер, детектив, приключения, HDRip-AVC] Dub Garnett
16 | 4

1 | 529

4

08.12.2012 15:10

Зарубежное кино [DVDRip, Low-Res HDRip, и т.д.] Эволюция Борна / The Bourne Legacy (Тони Гилрой ) [2012 г., боевик, триллер, детектив, BDRip-AVC] Dub Чертёнок
152 | 0

0 | 861

38

25.03.2013 07:41

Зарубежное кино [DVDRip, Low-Res HDRip, и т.д.] Эволюция Борна / The Bourne Legacy (Тони Гилрой / Tony Gilroy) [2012 г., боевик, триллер, детектив, приключения, BDRip] Dub 90ytr90
255 | 3

0 | 290

16

31.01.2015 21:36

Зарубежное кино [DVD / HDDVD / BD / Remux] Эволюция Борна / The Bourne Legacy (Тони Гилрой) [2012 г., боевик, триллер, детектив, приключения, DVD9] R5 90ytr90
0 | 0

0 | 577

4

06.12.2012 21:30

Зарубежное кино [DVD / HDDVD / BD / Remux] Эволюция Борна / The Bourne Legacy (Тони Гилрой) [2012, боевик, триллер, детектив, приключения, Blu-ray Disc 1080p] [CEE] Garnett
1 | 4

0 | 761

8

12.12.2012 17:52

Зарубежное кино [HDDVDRip / BDRip / WEB-DL / HDTV 1080/720р] Эволюция Борна / The Bourne Legacy (Тони Гилрой) [2012 г., боевик, триллер, детектив, приключения, BDRip 1080p] Dub + Original 90ytr90
0 | 0

0 | 505

8

06.12.2012 20:16

Зарубежное кино [HDDVDRip / BDRip / WEB-DL / HDTV 1080/720р] Эволюция Борна / The Bourne Legacy (Тони Гилрой) [2012, боевик, триллер, детектив, приключения, BDRip 720p] Dub + Original Garnett
23 | 0

0 | 617

21

10.12.2012 05:38

06-Дек-2012 13:17

Топик был перенесен из форума Анонсы группы HQ Underverse в форум Зарубежное кино HQ


HQ Underverse
 

ufa.star Пол:Муж

28-Фев-2013 10:58

:good: :good: :good:

Яндекс.Метрика powered by Sphinx


В Н И М А Н И Е
Сайт не распространяет и не хранит электронные версии произведений, а лишь бесплатно и без коммерческой выгоды (не требуя взамен платы,
SMS и т.д.) предоставляет доступ к создаваемому пользователями каталогу ссылок на торрент-файлы, которые содержат только списки хеш-сумм.
Убедительная просьба с жалобами обращаться напрямую к пользователю, разместившему торрент файл.

Вверх