Loading...
Error

Дикий 3 / Серии: 1-32 (32) (Артём Мазунов) [2012 г., детектив, криминал, боевик, SATRip]

Статистика раздачи
Размер:  16,23 GB   |    Зарегистрирован:  3 года 11 месяцев   |    Скачан:  5 раз

Полного источника не было: 2 года

Сидов:  0  |  0 KB/s  ]   Личеров:  0  |  0 KB/s  ]

* - сиды/пиры с внешних источников

   
 
Автор Сообщение

nemos Пол:Муж

03-Дек-2012 17:59

Дикий 3


Год выпуска: 2012
Жанр: Боевик, криминал
Страна: Россия
Режиссер: Артем Мазунов
В ролях: Игорь Лифанов, Артем Мазунов, Мария Баева, Юлия Майборода, Дмитрий Исаев, Игорь Миркурбанов, Александр Носик, Азиз Бейшеналиев, Лилия Мэй, Олег Васильков
Сюжет фильма:
На НТВ - премьера третьего сезона самого дикого сериала с одноименным названием! Создатели обещают, что будет дико смешно, дико опасно и дико интересно! Ведь любимого зрителями героя - Дикого - ждут новое звание, новая любовь и новая служба! Всё начинается с того, что оперуполномоченный Александр Диченко он же - Дикий - начинает охоту на банду беспредельщиков, которая занимается отстрелом якобы не чистых на руку полицейских. Бандиты захватывают отделение полиции, берут заложников, тяжело ранив при этом бывшего сослуживца Дикого... Разоблачение этой преступной группировки и станет последним делом Дикого в Вышнегорске. Вскоре он приезжает в Москву на похороны своего бывшего начальника Василича, который был жестоко убит накануне. В последнее время Василич руководил специальным отделом ГУВД, который занимался особо тяжкими преступлениями. В этот отдел со всего города "сбрасывали" наиболее сложные дела (как правило, стопроцентные "висяки")... И работали в этом отделе, как на подбор, наиболее опытные опера...


Качество видео: SatRip

Продолжительность: 00:42:44 серия
Формат: AVI
Видео: XviD, 720x368, 1495 kbps
Аудио: русский, MP3 2.0, 128 kbps

Код:

G:\СКАЧКИ\С underverse\Dikiy.3\Dikiy3.(32).2012.SATRip.avi
   General
      Complete name : G:\СКАЧКИ\С underverse\Dikiy.3\Dikiy3.(32).2012.SATRip.avi
      Format : AVI
      Format/Info : Audio Video Interleave
      File size : 499 MiB
      Duration : 42mn 44s
      Overall bit rate : 1 633 Kbps
      Writing application : VirtualDubMod 1.5.10.2 (build 2540/release)
      Writing library : VirtualDub build 32507/release
   Video #0
      ID : 0
      Format : MPEG-4 Visual
      Format profile : Advanced Simple@L5
      Format settings, BVOP : 2
      Format settings, QPel : No
      Format settings, GMC : No warppoints
      Format settings, Matrix : Default (MPEG)
      Muxing mode : Packed bitstream
      Codec ID : XVID
      Codec ID/Hint : XviD
      Duration : 42mn 44s
      Bit rate : 1 495 Kbps
      Width : 720 pixels
      Height : 368 pixels
      Display aspect ratio : 1.957
      Frame rate : 25.000 fps
      Color space : YUV
      Chroma subsampling : 4:2:0
      Bit depth : 8 bits
      Scan type : Progressive
      Compression mode : Lossy
      Bits/(Pixel*Frame) : 0.226
      Stream size : 457 MiB (92%)
      Writing library : XviD 1.2.1 (UTC 2008-12-04)
   Audio #1
      ID : 1
      Format : MPEG Audio
      Format version : Version 1
      Format profile : Layer 3
      Mode : Joint stereo
      Mode extension : MS Stereo
      Codec ID : 55
      Codec ID/Hint : MP3
      Duration : 42mn 44s
      Bit rate mode : Constant
      Bit rate : 128 Kbps
      Channel(s) : 2 channels
      Sampling rate : 48.0 KHz
      Compression mode : Lossy
      Stream size : 39.1 MiB (8%)
      Alignment : Aligned on interleaves
      Interleave, duration : 40 ms (1.00 video frame)
      Interleave, preload duration : 504 ms
      Writing library : LAME3.90.3
Семпл: http://multi-up.com/798574

picpicpicpicpicpicpicpicpicpicpicpicpicpic
Для увеличения картинки щелкните мышкой по превью

Этот торрент недоступен для скачивания без регистрации, однако доступен по публичной magnet-ссылке (источники с публичных трекеров). Перед использованием ссылки прочтите, пожалуйста Пользовательское соглашение, а также как можно дольше оставайтесь на раздаче! Для того, чтобы скачать сам торрент-файл (который видит больше источников), а также для того, чтобы поблагодарить релизера, вам необходимо зарегистрироваться. Если регистрироваться лень - вы можете также попробовать скачать релиз по нашим партнерским ссылкам ниже.

[underverse.su].t22591.torrent
Трекер: Зарегистрирован   [ 20.12.2012 19:10 ]  

Статус: проверено (by garry at 20.12.2012 19:42)
Поблагодарили: 4 человека
Тип торрента: публичный - доступные источники с открытых трекеров: 
Размер: 16,23 GB (занимает 3,71 DVDR, для записи нужно 4 болванки DVDR/RW)
 
 


Последний раз редактировалось: nemos (06.11.2014 12:35), всего редактировалось 6 раз(а)

nemos Пол:Муж

13-Дек-2012 19:47

Обновлена

nemos Пол:Муж

18-Дек-2012 01:50

Добавлены 25-26 серии

nemos Пол:Муж

20-Дек-2012 00:04

Обновлен

nemos Пол:Муж

20-Дек-2012 19:11

Добавлены все серии

Яндекс.Метрика powered by Sphinx


В Н И М А Н И Е
Сайт не распространяет и не хранит электронные версии произведений, а лишь бесплатно и без коммерческой выгоды (не требуя взамен платы,
SMS и т.д.) предоставляет доступ к создаваемому пользователями каталогу ссылок на торрент-файлы, которые содержат только списки хеш-сумм.
Убедительная просьба с жалобами обращаться напрямую к пользователю, разместившему торрент файл.

Вверх