Loading...
Error

Литейный, 4 / Сезоны: 1-6 / Серии: 1-140 (140) (Игорь Мужжухин, Алексей Гусев) [2008-2011 г., детектив, криминал, SATRip]

Статистика раздачи
Размер:  62,5 GB   |    Зарегистрирован:  4 года   |    Скачан:  1 раз

Полного источника не было: 8 месяцев

Сидов:  0  |  0 KB/s  ]   Личеров:  0  |  0 KB/s  ]

* - сиды/пиры с внешних источников

   
 
Автор Сообщение

nemos Пол:Муж

03-Дек-2012 05:02

Литейный, 4 / Сезоны: 1-6 / Серии: 1-140 (140)


Год выпуска: 2008-2011
Жанр: Детектив, криминал
Страна: Россия
Режиссер: Игорь Мужжухин, Алексей Гусев (II), Андрей Щербинин, Андрей Балашов, Алексей Праздников
В ролях: Юрий Кузнецов, Светлана Крючкова, Сергей Селин, Андрей Федорцов, Алексей Нилов, Анастасия Мельникова, Анвар Либабов, Николай Данилов, Татьяна Кузнецова (II), Татьяна Шахматова, Марианна Коробейникова, Игорь Волков, Всеволод Цурило, Евгений Сидихин, Сергей Мурзин, Михаил Пожидаев, Леонид Осокин, Ярослав Иванов, Владимир Матвеев, Роман Жилкин, Артур Ваха, Сергей Лысов, Александр Большаков, Сергей Щербин, Дмитрий Быковский, Алексей Осипов, Владислав Резник, Андрей Зибров, Юрис Лауциньш, Полина Сидихина, Вадим Никитин, Наталья Гусева, Татьяна Ткач, Алексей Одинг, Александр Сластин, Юрий Ицков, Алексей Панин
Сюжет фильма:
В Питере по адресу Литейный, дом 4 находится штаб специального отдела по расследованию особо сложных дел. Возглавляет команду лучших из лучших опытнейший Юрий Кузнецов по прозвищу Генерал. Из целого списка рекомендованных для работы он выбрал тех, кто способен на нестандартное мышление и готов работать на пределе возможностей. Настя Мельникова, Алексей Нилов, Сергей Селин, Андрей Ухов и Антон Грошев — вместе — спецотдел нового века, элитная группа, готовая к любым трудностям. Они подчиняются только президенту страны и высшему руководству МВД. В их распоряжении — дорогие машины, вся мощь современных технологий и новейшей шпионской техники. Отдел ждут расследования государственной важности и самые громкие дела: захват заложников, террористические угрозы, крупные финансовые аферы, контрабанда оружия, сделки с «живым товаром».

1 сезон:
1. Золотое дно
2. Смертельный трафик
3. Крылья
4. Час пик
5. Белые ночи
6. Исход дела неочевиден
7. Говорящая татуировка
8. Край обожжённых икон
9. Сеть
10. Призрак Выборгского замка
11. … и его команда
12. Тайны Черного моря
13. Я все отдам
14. Первый день года
15. Не трогайте его
16. Один против всех
17. Заложник
18. Опасная реальность
19. Эпидемия
20. Командировка в северный город
21. Охота на тайпана
22. Свет ангела
23. Проходная пешка
24. Без единой остановки

2 сезон:

1. Справедливость
2. Пляжный сезон
3. Страх высоты
4. Метка зверя
5. Лицо
6. Календарь смерти
7. День рождения
8. Отцы и дети
9. Джокер
10. Последний самолет
11. В огне
12. На цепи
13. Любовь страшнее смерти
14. Обратный эффект
15. Шантаж
16. Я буду ждать
17. Сканер
18. Стилист
19. Охота
20. Игра онлайн
21. Женский инстинкт
22. Рейтор
23. Небо в алмазах
24. Холодный дом

3 сезон:

1. Подстава
2. Мстители
3. Гость
4. Ненависть
5. Рок-н-ролл жив
6. Частное дельце
7. Безумный уик-энд
8. Смерть по телефону
9. Санитар
10. Друзья
11. Виртуоз
12. Закон мести
13. Песочный человек
14. Корпорация самоубийц
15. Оборотень
16. Не бойся, я с тобой
17. Мент позорный
18. Красный бриллиант
19. Киллер
20. Квадратный метр
21. Дословный перевод
22. Картина
23. Перевертыш
24. Жизнь на экспорт
25. Золотая осень
26. Темнота
27. Война

4 сезон:

1. Под прикрытием
2. За секунду до взрыва
3. Лесник
4. Привет из 90-х
5. Страсти по Андрею
6. Случайный разговор
7. Капкан для охотника
8. Последняя ставка
9. Страшные игры
10. Семейная традиция
11. Рикошет
12. Крысы
13. Спальный район
14. Долг
15. Совесть
16. Кража
17. В законе
18. Двойной удар
19. Городок
20. Хищник
21. Перейти черту
22. Фальшивка
23. Светские львицы
24. Высший пилотаж
25. Одноклассники
26. Возмездие
27. Золотое дело
28. Погоня
29. На живца
30. Опасный груз
31. Арт
32. Срок давности

5 сезон:

1. Банда
2. Родная кровь
3. Опасная рыбалка
4. Выход для героя
5. Цепная реакция
6. Шантажисты
7. Грехи юности
8. Профессионал
9. Цветы
10. Смерть за проезд
11. Юбилей
12. Выгодный обмен
13. Золотая лихорадка
14. Вернуть за вознаграждение
15. Должник
16. Легкая добыча

6 сезон:

1. «Тени прошлого»
2. «Весна»
3. «Высокие чувства»
4. «Непростое дело»
5. «Угроза»
6. «Мародеры»
7. «Подмена»
8. «Панацея»
9. «Бездорожье»
10. «Компромат»
11. «Подозреваемый»
12. «Нежданная встреча»
13. «Работа с населением»
14. «Бронежилет»
15. «Личное дело»
16. «Оправданный риск»
17. «Плата за жизнь»
* Некоторые изменения произошли и в актёрском составе и среди персонажей: вместо прежнего шефа — генерала Кузнецова (Юрий Кузнецов) в спецотделе появился новый начальник — генерал Шаламов (Евгений Сидихин), боевой офицер и интеллектуал, в своем роде мастер на все руки.
* В телепередаче Большая разница была показана пародия на сериал «Литейный»
* Актёр Сергей Уманов сыграл в сериале сразу две роли. В разных сериях он играл разных преступников.
* Юрий Кузнецов, Алексей Нилов, Сергей Селин и Анастасия Мельникова ранее снимались в телесериале «Улицы разбитых фонарей».
* Актёр Дмитрий Кузеняткин тоже сыграл в сериале сразу две роли. В разных сериях он играл разных людей.

Качество видео: SatRip

Продолжительность: 00:46:53 серия
Формат: AVI
Видео: 700x340, XviD, 1001 Kbps
Аудио: русский, MP3 2.0, 192 kbps

Семпл: http://multi-up.com/798302

Код:

G:\СКАЧКИ\С underverse\Liteyniy.4.(1-6.sezoni.140.seriy.iz.140).2008-2011.XviD-DivX.SATRip\Liteyniy.4.(1.sezon.24.serii.iz.24).2008.XviD-DivX.SATRip\Liteyniy.4.(1.sezon.24.serija.iz.24).2008.XviD.SATRip.avi
   General
      Complete name : G:\СКАЧКИ\С underverse\Liteyniy.4.(1-6.sezoni.140.seriy.iz.140).2008-2011.XviD-DivX.SATRip\Liteyniy.4.(1.sezon.24.serii.iz.24).2008.XviD-DivX.SATRip\Liteyniy.4.(1.sezon.24.serija.iz.24).2008.XviD.SATRip.avi
      Format : AVI
      Format/Info : Audio Video Interleave
      File size : 403 MiB
      Duration : 46mn 53s
      Overall bit rate : 1 202 Kbps
      Writing library : VirtualDub build 24463/release
   Video #0
      ID : 0
      Format : MPEG-4 Visual
      Format profile : Advanced Simple@L5
      Format settings, BVOP : 2
      Format settings, QPel : No
      Format settings, GMC : No warppoints
      Format settings, Matrix : Default (H.263)
      Muxing mode : Packed bitstream
      Codec ID : XVID
      Codec ID/Hint : XviD
      Duration : 46mn 53s
      Bit rate : 1 001 Kbps
      Width : 700 pixels
      Height : 340 pixels
      Display aspect ratio : 2.059
      Frame rate : 25.000 fps
      Color space : YUV
      Chroma subsampling : 4:2:0
      Bit depth : 8 bits
      Scan type : Progressive
      Compression mode : Lossy
      Bits/(Pixel*Frame) : 0.168
      Stream size : 336 MiB (83%)
      Writing library : XviD 1.1.2 (UTC 2006-11-01)
   Audio #1
      ID : 1
      Format : MPEG Audio
      Format version : Version 1
      Format profile : Layer 3
      Codec ID : 55
      Codec ID/Hint : MP3
      Duration : 46mn 53s
      Bit rate mode : Constant
      Bit rate : 192 Kbps
      Channel(s) : 2 channels
      Sampling rate : 48.0 KHz
      Compression mode : Lossy
      Delay relative to video : 24ms
      Stream size : 64.4 MiB (16%)
      Alignment : Split accross interleaves
      Interleave, duration : 40 ms (1.00 video frame)
      Interleave, preload duration : 500 ms
picpicpic
Качество видео: SatRip

Продолжительность: 00:47:27 серия
Формат: AVI
Видео: 608x336, DivX, 1055 Kbps
Аудио: русский, MP3 2.0, 192 kbps

Семпл: http://multi-up.com/798306

Код:

G:\СКАЧКИ\С underverse\Liteyniy.4.(1-6.sezoni.140.seriy.iz.140).2008-2011.XviD-DivX.SATRip\Liteyniy.4.(2.sezon.24.serii.iz.24).2009.XviD-DivX.SATRip\Liteyniy.4.(2.sezon.24.serija.iz.24).2009.DivX.SATRip.avi
   General
      Complete name : G:\СКАЧКИ\С underverse\Liteyniy.4.(1-6.sezoni.140.seriy.iz.140).2008-2011.XviD-DivX.SATRip\Liteyniy.4.(2.sezon.24.serii.iz.24).2009.XviD-DivX.SATRip\Liteyniy.4.(2.sezon.24.serija.iz.24).2009.DivX.SATRip.avi
      Format : AVI
      Format/Info : Audio Video Interleave
      File size : 427 MiB
      Duration : 47mn 27s
      Overall bit rate : 1 257 Kbps
      Writing application : VirtualDubModRus 1.5.10.1 (build 2439/release)
      Writing library : VirtualDubMod build 2439/release
   Video #0
      ID : 0
      Format : MPEG-4 Visual
      Format settings, BVOP : 2
      Format settings, QPel : No
      Format settings, GMC : No warppoints
      Format settings, Matrix : Default (H.263)
      Muxing mode : Packed bitstream
      Codec ID : DX50
      Codec ID/Hint : DivX 5
      Duration : 47mn 27s
      Bit rate : 1 055 Kbps
      Width : 608 pixels
      Height : 336 pixels
      Display aspect ratio : 16:9
      Frame rate : 25.000 fps
      Color space : YUV
      Chroma subsampling : 4:2:0
      Bit depth : 8 bits
      Scan type : Progressive
      Compression mode : Lossy
      Bits/(Pixel*Frame) : 0.207
      Stream size : 358 MiB (84%)
      Writing library : DivX 6.8.5 (UTC 2009-08-20)
   Audio #1
      ID : 1
      Format : MPEG Audio
      Format version : Version 1
      Format profile : Layer 2
      Codec ID : 50
      Duration : 47mn 26s
      Bit rate mode : Constant
      Bit rate : 192 Kbps
      Channel(s) : 2 channels
      Sampling rate : 48.0 KHz
      Compression mode : Lossy
      Delay relative to video : 16ms
      Stream size : 65.2 MiB (15%)
      Alignment : Split accross interleaves
      Interleave, duration : 40 ms (1.00 video frame)
      Interleave, preload duration : 500 ms
picpicpic
Качество видео: SatRip

Продолжительность: 00:45:52 серия
Формат: AVI
Видео: 704x384, DivX, 1300 Kbps
Аудио: русский, MP3 2.0, 256 Кбит/с

Семпл: http://multi-up.com/798307

Код:

G:\СКАЧКИ\С underverse\Liteyniy.4.(1-6.sezoni.140.seriy.iz.140).2008-2011.XviD-DivX.SATRip\Liteyniy.4.(3.sezon.27.seriy.iz.27).2009.DivX.SATRip\Liteyniy.4.(3.sezon.27.serija.iz.27).2009.DivX.SATRip.avi
   General
      Complete name : G:\СКАЧКИ\С underverse\Liteyniy.4.(1-6.sezoni.140.seriy.iz.140).2008-2011.XviD-DivX.SATRip\Liteyniy.4.(3.sezon.27.seriy.iz.27).2009.DivX.SATRip\Liteyniy.4.(3.sezon.27.serija.iz.27).2009.DivX.SATRip.avi
      Format : AVI
      Format/Info : Audio Video Interleave
      File size : 514 MiB
      Duration : 45mn 52s
      Overall bit rate : 1 566 Kbps
      Writing application : VirtualDubModRus 1.5.10.1 (build 2439/release)
      Writing library : VirtualDubMod build 2439/release
   Video #0
      ID : 0
      Format : MPEG-4 Visual
      Format settings, BVOP : 3
      Format settings, QPel : No
      Format settings, GMC : No warppoints
      Format settings, Matrix : Default (H.263)
      Muxing mode : Packed bitstream
      Codec ID : DX50
      Codec ID/Hint : DivX 5
      Duration : 45mn 52s
      Bit rate : 1 300 Kbps
      Width : 704 pixels
      Height : 384 pixels
      Display aspect ratio : 1.85:1
      Frame rate : 25.000 fps
      Color space : YUV
      Chroma subsampling : 4:2:0
      Bit depth : 8 bits
      Scan type : Progressive
      Compression mode : Lossy
      Bits/(Pixel*Frame) : 0.192
      Stream size : 427 MiB (83%)
      Writing library : DivX 6.8.5 (UTC 2009-08-20)
   Audio #1
      ID : 1
      Format : MPEG Audio
      Format version : Version 1
      Format profile : Layer 2
      Codec ID : 50
      Duration : 45mn 52s
      Bit rate mode : Constant
      Bit rate : 256 Kbps
      Channel(s) : 2 channels
      Sampling rate : 48.0 KHz
      Compression mode : Lossy
      Stream size : 84.0 MiB (16%)
      Alignment : Aligned on interleaves
      Interleave, duration : 40 ms (1.00 video frame)
      Interleave, preload duration : 504 ms
picpicpic
Качество видео: SatRip

Продолжительность: 00:45:51 серия
Формат: AVI
Видео: 704x384, DivX, 1300 Kbps
Аудио: русский, MP3 2.0, 128 Кбит/с

Семпл: http://multi-up.com/798308

Код:

G:\СКАЧКИ\С underverse\Liteyniy.4.(1-6.sezoni.140.seriy.iz.140).2008-2011.XviD-DivX.SATRip\Liteyniy.4.(4.sezon.32.serii.iz.32).2010.XviD-DivX.SATRip\Liteyniy.4.(4.sezon.32.serija.iz.32).2010.DivX.SATRip.avi
   General
      Complete name : G:\СКАЧКИ\С underverse\Liteyniy.4.(1-6.sezoni.140.seriy.iz.140).2008-2011.XviD-DivX.SATRip\Liteyniy.4.(4.sezon.32.serii.iz.32).2010.XviD-DivX.SATRip\Liteyniy.4.(4.sezon.32.serija.iz.32).2010.DivX.SATRip.avi
      Format : AVI
      Format/Info : Audio Video Interleave
      File size : 472 MiB
      Duration : 45mn 51s
      Overall bit rate : 1 438 Kbps
      Writing application : VirtualDubModRus 1.5.10.1 (build 2439/release)
      Writing library : VirtualDubMod build 2439/release
   Video #0
      ID : 0
      Format : MPEG-4 Visual
      Format settings, BVOP : 3
      Format settings, QPel : No
      Format settings, GMC : No warppoints
      Format settings, Matrix : Default (H.263)
      Muxing mode : Packed bitstream
      Codec ID : DX50
      Codec ID/Hint : DivX 5
      Duration : 45mn 51s
      Bit rate : 1 300 Kbps
      Width : 704 pixels
      Height : 384 pixels
      Display aspect ratio : 1.85:1
      Frame rate : 25.000 fps
      Color space : YUV
      Chroma subsampling : 4:2:0
      Bit depth : 8 bits
      Scan type : Progressive
      Compression mode : Lossy
      Bits/(Pixel*Frame) : 0.192
      Stream size : 427 MiB (90%)
      Writing library : DivX 6.8.5 (UTC 2009-08-20)
   Audio #1
      ID : 1
      Format : MPEG Audio
      Format version : Version 1
      Format profile : Layer 2
      Codec ID : 50
      Duration : 45mn 51s
      Bit rate mode : Constant
      Bit rate : 128 Kbps
      Channel(s) : 1 channel
      Sampling rate : 48.0 KHz
      Compression mode : Lossy
      Stream size : 42.0 MiB (9%)
      Alignment : Aligned on interleaves
      Interleave, duration : 40 ms (1.00 video frame)
      Interleave, preload duration : 504 ms
picpicpic
Качество видео: SatRip

Продолжительность: 00:45:42 серия
Формат: AVI
Видео: 704x384, DivX, 1300 Kbps
Аудио: русский, MP3 2.0, 128 Кбит/с

Семпл: http://multi-up.com/798309

Код:

G:\СКАЧКИ\С underverse\Liteyniy.4.(1-6.sezoni.140.seriy.iz.140).2008-2011.XviD-DivX.SATRip\Liteyniy.4.(5.sezon.16.seriy.iz.16).2011.XviD-DivX.SATRip\Liteyniy.4.(5.sezon.16.serija.iz.16).2010.DivX.SATRip.avi
   General
      Complete name : G:\СКАЧКИ\С underverse\Liteyniy.4.(1-6.sezoni.140.seriy.iz.140).2008-2011.XviD-DivX.SATRip\Liteyniy.4.(5.sezon.16.seriy.iz.16).2011.XviD-DivX.SATRip\Liteyniy.4.(5.sezon.16.serija.iz.16).2010.DivX.SATRip.avi
      Format : AVI
      Format/Info : Audio Video Interleave
      File size : 470 MiB
      Duration : 45mn 42s
      Overall bit rate : 1 438 Kbps
      Writing application : VirtualDubMod 1.5.10.2 (build 2540/release)
      Writing library : VirtualDubMod build 2540/release
   Video #0
      ID : 0
      Format : MPEG-4 Visual
      Format settings, BVOP : 1
      Format settings, QPel : No
      Format settings, GMC : No warppoints
      Format settings, Matrix : Default (H.263)
      Muxing mode : Packed bitstream
      Codec ID : DX50
      Codec ID/Hint : DivX 5
      Duration : 45mn 42s
      Bit rate : 1 300 Kbps
      Width : 704 pixels
      Height : 384 pixels
      Display aspect ratio : 5:4
      Original display aspect ratio : 1.85:1
      Frame rate : 25.000 fps
      Color space : YUV
      Chroma subsampling : 4:2:0
      Bit depth : 8 bits
      Scan type : Progressive
      Compression mode : Lossy
      Bits/(Pixel*Frame) : 0.192
      Stream size : 425 MiB (90%)
      Writing library : DivX 6.8.5 (UTC 2009-08-20)
   Audio #1
      ID : 1
      Format : MPEG Audio
      Format version : Version 1
      Format profile : Layer 3
      Mode : Joint stereo
      Mode extension : MS Stereo
      Codec ID : 55
      Codec ID/Hint : MP3
      Duration : 45mn 42s
      Bit rate mode : Constant
      Bit rate : 128 Kbps
      Channel(s) : 2 channels
      Sampling rate : 48.0 KHz
      Compression mode : Lossy
      Stream size : 41.8 MiB (9%)
      Alignment : Split accross interleaves
      Interleave, duration : 40 ms (1.00 video frame)
      Interleave, preload duration : 500 ms
picpicpic
Качество видео: SatRip

Продолжительность: 00:45:05 серия
Формат: AVI
Видео: 704x384, XviD, 1395 Kbps
Аудио: русский, MP3 2.0, 128 Кбит/с

Семпл: http://multi-up.com/798310

Код:

G:\СКАЧКИ\С underverse\Liteyniy.4.(1-6.sezoni.140.seriy.iz.140).2008-2011.XviD-DivX.SATRip\Liteyniy.4.(6.sezon.17.seriy.iz.17).2011.XviD-DivX.SATRip\Liteyniy.4.(6.sezon.17.serija.iz.17).2011.XviD.SATRip.avi
   General
      Complete name : G:\СКАЧКИ\С underverse\Liteyniy.4.(1-6.sezoni.140.seriy.iz.140).2008-2011.XviD-DivX.SATRip\Liteyniy.4.(6.sezon.17.seriy.iz.17).2011.XviD-DivX.SATRip\Liteyniy.4.(6.sezon.17.serija.iz.17).2011.XviD.SATRip.avi
      Format : AVI
      Format/Info : Audio Video Interleave
      File size : 494 MiB
      Duration : 45mn 5s
      Overall bit rate : 1 533 Kbps
      Writing application : VirtualDubModRus 1.5.10.2 (build 2542/release)
      Writing library : VirtualDubMod build 2542/release
   Video #0
      ID : 0
      Format : MPEG-4 Visual
      Format profile : Advanced Simple@L5
      Format settings, BVOP : 2
      Format settings, QPel : No
      Format settings, GMC : No warppoints
      Format settings, Matrix : Default (H.263)
      Muxing mode : Packed bitstream
      Codec ID : XVID
      Codec ID/Hint : XviD
      Duration : 45mn 5s
      Bit rate : 1 395 Kbps
      Width : 704 pixels
      Height : 384 pixels
      Display aspect ratio : 1.85:1
      Frame rate : 25.000 fps
      Color space : YUV
      Chroma subsampling : 4:2:0
      Bit depth : 8 bits
      Scan type : Progressive
      Compression mode : Lossy
      Bits/(Pixel*Frame) : 0.206
      Stream size : 450 MiB (91%)
      Writing library : XviD 64
   Audio #1
      ID : 1
      Format : MPEG Audio
      Format version : Version 1
      Format profile : Layer 3
      Mode : Joint stereo
      Mode extension : MS Stereo
      Codec ID : 55
      Codec ID/Hint : MP3
      Duration : 45mn 5s
      Bit rate mode : Constant
      Bit rate : 128 Kbps
      Channel(s) : 2 channels
      Sampling rate : 48.0 KHz
      Compression mode : Lossy
      Stream size : 41.3 MiB (8%)
      Alignment : Split accross interleaves
      Interleave, duration : 40 ms (1.00 video frame)
      Interleave, preload duration : 500 ms
picpicpic

Этот торрент доступен для скачивания без регистрации. Перед тем, как его скачать, прочтите, пожалуйста Пользовательское соглашение, а также как можно дольше оставайтесь на раздаче! Также вы можете выкладывать этот торрент или ссылку на него на других интернет-ресурсах, в том числе на торрент трекерах. Для получение более подробной информации о релизе, а также для того, чтобы поблагодарить релизера, вам необходимо зарегистрироваться.

[underverse.su].t21784.torrent
Трекер: Зарегистрирован   [ 03.12.2012 05:02 ]   [ торрент доступен для скачивания без регистрации ]

Статус: проверено (by garry at 05.12.2012 21:38)
Поблагодарили: 1 человек
Тип торрента: публичный - доступные источники с открытых трекеров: 
Размер: 62,5 GB (занимает 14,28 DVDR, для записи нужно 15 болванок DVDR/RW)
 
 
Похожие темы
Форум Тема Автор Торрент Отв. Посл. сооб.
xUSSR сериалы Литейный, 4 / Сезон: 7 / Серии: 1-32(Евгений Малков, Шакир Загидуллин) [2012, Детектив, криминал, SATRip] nemos
0 | 0

6 | 1893

6

22.12.2012 00:35


Яндекс.Метрика powered by Sphinx


В Н И М А Н И Е
Сайт не распространяет и не хранит электронные версии произведений, а лишь бесплатно и без коммерческой выгоды (не требуя взамен платы,
SMS и т.д.) предоставляет доступ к создаваемому пользователями каталогу ссылок на торрент-файлы, которые содержат только списки хеш-сумм.
Убедительная просьба с жалобами обращаться напрямую к пользователю, разместившему торрент файл.

Вверх