Loading...
Error

Литейный, 4 / Сезон: 7 / Серии: 1-32(Евгений Малков, Шакир Загидуллин) [2012, Детектив, криминал, SATRip]

Статистика раздачи
Размер:  16,41 GB   |    Зарегистрирован:  3 года 11 месяцев   |    Скачан:  6 раз

Полного источника не было: 1 год

Сидов:  0  |  0 KB/s  ]   Личеров:  0  |  0 KB/s  ]

* - сиды/пиры с внешних источников

   
 
Автор Сообщение

nemos Пол:Муж

02-Дек-2012 22:01



Год выпуска: 2012
Жанр: Детектив, криминал
Страна: Россия
Режиссер: Евгений Малков, Шакир Загидуллин, Михаил Макаренко, Максим Бриус, Сергей Полуянов
В ролях: Анна Лутцева, Екатерина Проскурина, Татьяна Колганова, Константин Соловьёв, Анвар Либабов, Андрей Федорцов, Анастасия Мельникова, Сергей Селин, Алексей Нилов, Евгений Сидихин
Сюжет фильма:
Давно знакомые герои "Литейного" - Евгений Шаламов (Евгений Сидихин), Алексей Нилов, Сергей Селин, Андрей Ухов (Андрей Федорцов), Антон Грошев (Анвар Либабов), Настя Мельникова - снова на НТВ! В новом сезоне к их слаженной команде присоединится Виктор Скворцов (Константин Соловьёв), в прошлом - оперативник, прославившийся своей дерзостью и крутым нравом. Как всегда, сотрудники спецотдела будут находиться в самой гуще опасных, невероятных и страшных событий, ведь руководство всегда отправляет их туда, где другие службы оказываются бессильны. Команде генерала Шаламова снова придётся с оружием в руках защищать закон и рисковать своими жизнями. К этому невозможно привыкнуть, как и к тому, что в любой момент даже простая проверка адреса, по которому живет свидетель, может привести к трагедии. В борьбе с наркомафией, торговцами оружием, расхитителями национальных богатств и шпионами коллегам с Литейного предстоит использовать все свои навыки и действовать порою на пределе возможного. Убийство обыкновенного прораба на стройке приведёт оперативников к тайне, которую тщательно скрывали военные. Охота за "оборотнем в погонах" обернется масштабной разборкой с бандитами, операция по задержанию банды фальшивомонетчиков будет сорвана, и отделу нужно будет спасать агента, работавшего под прикрытием. Однако новые трудности не пугают наших героев. Конечно, они - команда профессиональных спецагентов, но ничто человеческое им не чуждо. Бывает, они устают друг от друга, ссорятся, мирятся, совершают ошибки... Личные отношения героев "Литейного" будут не менее интересны зрителям, чем детективные истории, в которых они участвуют. Главное - они никогда не забывают, ради чего живут. А цель у них одна - безопасность родной страны!
Качество видео: SatRip

Продолжительность: 00:46:19 x 26
Формат: AVI
Видео: XviD, 704x384, 1493 kbps
Аудио: русский, MP3 2.0, 128 kbps

Код:

G:\СКАЧКИ\С underverse\Liteyniy.4.(7.sezon)\Liteyniy.7.sezon.(10).avi
   General
      Complete name : G:\СКАЧКИ\С underverse\Liteyniy.4.(7.sezon)\Liteyniy.7.sezon.(10).avi
      Format : AVI
      Format/Info : Audio Video Interleave
      File size : 540 MiB
      Duration : 46mn 19s
      Overall bit rate : 1 630 Kbps
      Writing application : VirtualDubMod 1.5.10.2 (build 2540/release)
      Writing library : VirtualDub build 32507/release
   Video #0
      ID : 0
      Format : MPEG-4 Visual
      Format profile : Advanced Simple@L5
      Format settings, BVOP : 2
      Format settings, QPel : No
      Format settings, GMC : No warppoints
      Format settings, Matrix : Default (MPEG)
      Muxing mode : Packed bitstream
      Codec ID : XVID
      Codec ID/Hint : XviD
      Duration : 46mn 19s
      Bit rate : 1 493 Kbps
      Width : 704 pixels
      Height : 384 pixels
      Display aspect ratio : 1.85:1
      Frame rate : 25.000 fps
      Color space : YUV
      Chroma subsampling : 4:2:0
      Bit depth : 8 bits
      Scan type : Progressive
      Compression mode : Lossy
      Bits/(Pixel*Frame) : 0.221
      Stream size : 495 MiB (92%)
      Writing library : XviD 1.2.1 (UTC 2008-12-04)
   Audio #1
      ID : 1
      Format : MPEG Audio
      Format version : Version 1
      Format profile : Layer 3
      Mode : Joint stereo
      Mode extension : MS Stereo
      Codec ID : 55
      Codec ID/Hint : MP3
      Duration : 46mn 19s
      Bit rate mode : Constant
      Bit rate : 128 Kbps
      Channel(s) : 2 channels
      Sampling rate : 48.0 KHz
      Compression mode : Lossy
      Stream size : 42.4 MiB (8%)
      Alignment : Aligned on interleaves
      Interleave, duration : 40 ms (1.00 video frame)
      Interleave, preload duration : 504 ms
      Writing library : LAME3.90.3
Семпл: http://multi-up.com/798268

picpicpicpicpicpicpicpicpicpicpicpicpicpic
Для увеличения картинки щелкните мышкой по превью

Этот торрент недоступен для скачивания без регистрации, однако доступен по публичной magnet-ссылке (источники с публичных трекеров). Перед использованием ссылки прочтите, пожалуйста Пользовательское соглашение, а также как можно дольше оставайтесь на раздаче! Для того, чтобы скачать сам торрент-файл (который видит больше источников), а также для того, чтобы поблагодарить релизера, вам необходимо зарегистрироваться. Если регистрироваться лень - вы можете также попробовать скачать релиз по нашим партнерским ссылкам ниже.

[underverse.su].t22657.torrent
Трекер: Зарегистрирован   [ 22.12.2012 07:54 ]  

Статус: проверено (by garry at 23.12.2012 23:00)
Поблагодарили: 1 человек
Тип торрента: публичный - доступные источники с открытых трекеров: 
Размер: 16,41 GB (занимает 3,75 DVDR, для записи нужно 4 болванки DVDR/RW)
 
 
Похожие темы
Форум Тема Автор Торрент Отв. Посл. сооб.
xUSSR сериалы Литейный, 4 / Сезоны: 1-6 / Серии: 1-140 (140) (Игорь Мужжухин, Алексей Гусев) [2008-2011 г., детектив, криминал, SATRip] nemos
0 | 0

0 | 666

1

03.12.2012 05:02



Последний раз редактировалось: nemos (06.11.2014 12:34), всего редактировалось 18 раз(а)

nemos Пол:Муж

03-Дек-2012 21:02

Добавил серии (21)

nemos Пол:Муж

13-Дек-2012 20:07

Добавил серии (23-24)

nemos Пол:Муж

18-Дек-2012 02:08

Добавил серии (25-26)

nemos Пол:Муж

20-Дек-2012 00:24

Обновлена

nemos Пол:Муж

21-Дек-2012 23:43

Обновлена

garry Пол:Муж

22-Дек-2012 00:35

Цитата:

Новый текстовый документ.txt 20 B (20)
что это за файл в раздаче?

Яндекс.Метрика powered by Sphinx


В Н И М А Н И Е
Сайт не распространяет и не хранит электронные версии произведений, а лишь бесплатно и без коммерческой выгоды (не требуя взамен платы,
SMS и т.д.) предоставляет доступ к создаваемому пользователями каталогу ссылок на торрент-файлы, которые содержат только списки хеш-сумм.
Убедительная просьба с жалобами обращаться напрямую к пользователю, разместившему торрент файл.

Вверх