Loading...
Error

Самый длинный день / The Longest Day (Кен Эннакин, Эндрю Мортон, Бернхард Викки) [1962 г., боевик, драма, военный, история, BDRip] MVO + Original HQ Underverse

Статистика раздачи
Размер:  2,9 GB   |    Зарегистрирован:  4 года   |    Скачан:  17 раз

Полного источника не было: 1 год 3 месяца

Сидов:  0  |  0 KB/s  ]   Личеров:  0  |  0 KB/s  ]

* - сиды/пиры с внешних источников

   
 
Автор Сообщение

HQ Underverse 

29-Ноя-2012 22:43

Самый длинный день / The Longest Day


Год выпуска: 1962
Жанр: боевик, драма, военный, история
Страна: США
Режиссер: Кен Эннакин, Эндрю Мортон, Бернхард Викки
В ролях: Эдди Альберт, Пол Энка, Арлетти, Жан-Луи Барро, Ричард Беймер, Ганс Кристиан Блех, Бурвиль, Ричард Бёртон, Вольфганг Бюттнер, Ред Баттонс
Сюжет фильма:
Картина повествует о знаменитой высадке в Нормандии, легендарном дне «Д» — 6 июня 1944 года.

Ранним утром того дня армада из 5 тысяч судов армии союзников, сосредоточенных на Британских островах, пересекла Ла-Манш и начала высадку экспедиционных сил на побережье Нормандии. Как для союзников, так и для немцев это был самый долгий день…

  • Мировая премьера: 25 сентября 1962


Качество видео: BDRip [The Longest Day 1962 German Bluray 1080p AVC DTS HD]

Продолжительность: 02:58:20
Формат: avi
Видео: XviD, 720x304, 1936 kbps
Аудио #1: русский, многоголосый закадровый [профессиональный], AC3 5.1, 384 kbps
Аудио #2: английский, оригинал, AC3 5.1, 384 kbps (отдельным файлом)
Субтитры: внешние, SRT, английский

Код:

General
Complete name                    : D:\Video\Movies\Releases\The.Longest.Day.1962.BDRip.XviD.AC3.Rus.MVO.HQ.Underverse.avi
Format                           : AVI
Format/Info                      : Audio Video Interleave
Format profile                   : OpenDML
File size                        : 2.90 GiB
Duration                         : 2h 58mn
Overall bit rate                 : 2 332 Kbps
Writing application              : VirtualDubMod 1.5.10.2 (build 2540/release)
Writing library                  : VirtualDubMod build 2540/release

Video
ID                               : 0
Format                           : MPEG-4 Visual
Format profile                   : Streaming Video@L1
Format settings, BVOP            : Yes
Format settings, QPel            : No
Format settings, GMC             : No warppoints
Format settings, Matrix          : Custom
Muxing mode                      : Packed bitstream
Codec ID                         : XVID
Codec ID/Hint                    : XviD
Duration                         : 2h 58mn
Bit rate                         : 1 937 Kbps
Width                            : 720 pixels
Height                           : 304 pixels
Display aspect ratio             : 2.35
Frame rate                       : 23.976 fps
Resolution                       : 24 bits
Colorimetry                      : 4:2:0
Scan type                        : Progressive
Bits/(Pixel*Frame)               : 0.369
Stream size                      : 2.41 GiB (83%)
Writing library                  : XviD 64

Audio
ID                               : 1
Format                           : AC-3
Format/Info                      : Audio Coding 3
Codec ID                         : 2000
Duration                         : 2h 58mn
Bit rate mode                    : Constant
Bit rate                         : 384 Kbps
Channel(s)                       : 6 channels
Channel positions                : Front: L C R, Surround: L R, LFE
Sampling rate                    : 48.0 KHz
Stream size                      : 490 MiB (16%)
Alignment                        : Split accross interleaves
Interleave, duration             : 42 ms (1.00 video frame)
Interleave, preload duration     : 500 ms
Title                            : The.Longest.Day.1962.AC3.Rus.MVO.384.kbps.HQ.Underverse.ac3

General
Complete name                    : D:\Video\Movies\Releases\The.Longest.Day.1962.BDRip.XviD.AC3.Rus.MVO.HQ.Underverse.Eng.ac3
Format                           : AC-3
Format/Info                      : Audio Coding 3
File size                        : 490 MiB
Duration                         : 2h 58mn
Overall bit rate                 : 384 Kbps

Audio
Format                           : AC-3
Format/Info                      : Audio Coding 3
Duration                         : 2h 58mn
Bit rate mode                    : Constant
Bit rate                         : 384 Kbps
Channel(s)                       : 6 channels
Channel positions                : Front: L C R, Surround: L R, LFE
Sampling rate                    : 48.0 KHz
Stream size                      : 490 MiB (100%)

Семпл: http://multi-up.com/796617

Релиз группы:

picpicpic
Для увеличения картинки щелкните мышкой по превью

Этот торрент недоступен для скачивания без регистрации, однако доступен по публичной magnet-ссылке (источники с публичных трекеров). Перед использованием ссылки прочтите, пожалуйста Пользовательское соглашение, а также как можно дольше оставайтесь на раздаче! Для того, чтобы скачать сам торрент-файл (который видит больше источников), а также для того, чтобы поблагодарить релизера, вам необходимо зарегистрироваться. Если регистрироваться лень - вы можете также попробовать скачать релиз по нашим партнерским ссылкам ниже.

[underverse.su].t21691.torrent
Трекер: Зарегистрирован   [ 29.11.2012 22:43 ]  

Статус: проверено (by garry at 30.11.2012 09:47)
Поблагодарили: 1 человек
Тип торрента: публичный - доступные источники с открытых трекеров: 
Размер: 2,9 GB (занимает 2/3 DVDR, для записи нужно 1 болванка DVDR/RW)
 
 

90ytr90 

30-Ноя-2012 16:01

http://www.kinopoisk.ru/awards/film/1351/

Спасибо.

Яндекс.Метрика powered by Sphinx


В Н И М А Н И Е
Сайт не распространяет и не хранит электронные версии произведений, а лишь бесплатно и без коммерческой выгоды (не требуя взамен платы,
SMS и т.д.) предоставляет доступ к создаваемому пользователями каталогу ссылок на торрент-файлы, которые содержат только списки хеш-сумм.
Убедительная просьба с жалобами обращаться напрямую к пользователю, разместившему торрент файл.

Вверх