Loading...
Error

Дневник слабака 3 / Diary of a Wimpy Kid: Dog Days (Дэвид Бауэрс) [2012 г., комедия, семейный, HDRip-AVC] MVO

Статистика раздачи
Размер:  1,45 GB   |    Зарегистрирован:  4 года   |    Скачан:  2 раза

Полного источника не было: 3 года 11 месяцев

Сидов:  0  |  0 KB/s  ]   Личеров:  0  |  0 KB/s  ]

* - сиды/пиры с внешних источников

   
 
Автор Сообщение

Garnett Пол:Муж

28-Ноя-2012 17:23

Дневник слабака 3 / Diary of a Wimpy Kid: Dog Days


Год выпуска: 2012
Жанр: комедия, семейный
Страна: США
Режиссер: Дэвид Бауэрс
В ролях: Захари Гордан, Стив Зан, Роберт Капрон, Девон Бостик, Рэйчел Харрис, Пейтон Лист, Грэйсон Расселл, Каран Брэр, Лэйн МакНил, Коннор Филдинг
Сюжет фильма:
Школа закончилась и Грэг готов к теплым летним денькам. Точнее был готов до того момента, когда все его далеко идущие планы на лето в одночасье накрылись медным тазом. Чем же он теперь будет заниматься все лето?

  • Мировая премьера: 3 августа 2012

Качество видео: HDRip-AVC

Продолжительность: 01:33:57
Видео: x264, 830*352, 1765 Кбит/сек
Аудио: русский, многоголосый закадровый [профессиональный], AC3 5.1, 448 Кбит/сек

Код:

Общее
Уникальный идентификатор : 253037348990426572255614540918268769356 (0xBE5D3882DE774A7B8510416ED176344C)
Полное имя : Dnevnik_slabaka_3_2012_HDRip_AVC_MVO.mkv
Формат : Matroska
Размер файла : 1,45 Гбайт
Продолжительность : 1 ч. 33 м.
Общий поток : 2213 Кбит/сек
Дата кодирования : UTC 2012-11-25 16:21:11
Программа кодирования : mkvmerge v5.6.0 ('Kenya Kane') built on May 27 2012 16:44:04
Библиотека кодирования : libebml v1.2.3 + libmatroska v1.3.0
Видео
Идентификатор : 1
Формат : AVC
Формат/Информация : Advanced Video Codec
Профиль формата : High@L4.1
Параметр CABAC формата : Да
Параметр ReFrames формата : 10 кадры
Идентификатор кодека : V_MPEG4/ISO/AVC
Продолжительность : 1 ч. 33 м.
Битрейт : 1765 Кбит/сек
Ширина : 830 пикс.
Высота : 352 пикс.
Соотношение сторон : 2,35:1
Частота кадров : 23,976 кадр/сек
Цветовое пространство : YUV
Подвыборка цветности : 4:2:0
Битовая глубина : 8 бит
Тип развёртки : Прогрессивная
Бит/(Пиксели*Кадры) : 0.252
Размер потока : 1,13 Гбайт (78%)
Библиотека кодирования : x264 core 125 r2200 999b753
Настройки программы : cabac=1 / ref=10 / deblock=1:-2:-1 / analyse=0x3:0x113 / me=umh / subme=9 / psy=1 / psy_rd=1.00:0.05 / mixed_ref=1 / me_range=32 / chroma_me=1 / trellis=2 / 8x8dct=1 / cqm=0 / deadzone=21,11 / fast_pskip=0 / chroma_qp_offset=-3 / threads=8 / lookahead_threads=1 / sliced_threads=0 / nr=0 / decimate=0 / interlaced=0 / bluray_compat=0 / constrained_intra=0 / bframes=12 / b_pyramid=2 / b_adapt=2 / b_bias=0 / direct=1 / weightb=1 / open_gop=0 / weightp=2 / keyint=240 / keyint_min=23 / scenecut=40 / intra_refresh=0 / rc_lookahead=40 / rc=2pass / mbtree=1 / bitrate=1765 / ratetol=1.0 / qcomp=0.60 / qpmin=10 / qpmax=51 / qpstep=4 / cplxblur=20.0 / qblur=0.5 / vbv_maxrate=50000 / vbv_bufsize=50000 / nal_hrd=none / ip_ratio=1.40 / aq=1:1.00
Язык : English
Аудио
Идентификатор : 2
Формат : AC-3
Формат/Информация : Audio Coding 3
Расширение режима : CM (complete main)
Идентификатор кодека : A_AC3
Продолжительность : 1 ч. 33 м.
Вид битрейта : Постоянный
Битрейт : 448 Кбит/сек
Канал(ы) : 6 канала(ов)
Расположение каналов : Front: L C R, Side: L R, LFE
Частота : 48,0 КГц
Битовая глубина : 16 бит
Метод сжатия : С потерями
Размер потока : 301 Мбайт (20%)
Заголовок : DD 5.1 @ 448 kbps - MVO, R5
Язык : Russian
Меню
00:00:00.000 : en:00:00:00.000
00:05:20.362 : en:00:05:20.362
00:06:30.724 : en:00:06:30.724
00:10:10.735 : en:00:10:10.735
00:12:05.391 : en:00:12:05.391
00:16:22.190 : en:00:16:22.190
00:20:44.201 : en:00:20:44.201
00:23:27.197 : en:00:23:27.197
00:27:53.463 : en:00:27:53.463
00:31:16.083 : en:00:31:16.083
00:36:40.573 : en:00:36:40.573
00:40:10.908 : en:00:40:10.908
00:43:41.953 : en:00:43:41.953
00:48:55.432 : en:00:48:55.432
00:52:15.716 : en:00:52:15.716
00:54:32.227 : en:00:54:32.227
00:59:13.091 : en:00:59:13.091
01:02:26.201 : en:01:02:26.201
01:05:31.719 : en:01:05:31.719
01:08:22.140 : en:01:08:22.140
01:12:35.142 : en:01:12:35.142
01:15:20.266 : en:01:15:20.266
01:21:57.329 : en:01:21:57.329
01:27:19.985 : en:01:27:19.985
picpicpic
Для увеличения картинки щелкните мышкой по превью

Этот торрент недоступен для скачивания без регистрации, однако доступен по публичной magnet-ссылке (источники с публичных трекеров). Перед использованием ссылки прочтите, пожалуйста Пользовательское соглашение, а также как можно дольше оставайтесь на раздаче! Для того, чтобы скачать сам торрент-файл (который видит больше источников), а также для того, чтобы поблагодарить релизера, вам необходимо зарегистрироваться. Если регистрироваться лень - вы можете также попробовать скачать релиз по нашим партнерским ссылкам ниже.

[underverse.su].t21658.torrent
Трекер: Зарегистрирован   [ 28.11.2012 17:23 ]  

Статус: проверено (by garry at 28.11.2012 19:30)
Поблагодарили: пока никто не поблагодарил...
Тип торрента: публичный - доступные источники с открытых трекеров: 
Размер: 1,45 GB (занимает 1/3 DVDR, для записи нужно 1 болванка DVDR/RW)
 
 
Похожие темы
Форум Тема Автор Торрент Отв. Посл. сооб.
Зарубежное кино [DVDRip, Low-Res HDRip, и т.д.] Дневник слабака 3 / Diary of a Wimpy Kid: Dog Days (Дэвид Бауэрс) [2012 г., комедия, семейный, HDRip] Dub [лицензия] RG NewCinema
1 | 0

0 | 779

14

23.11.2012 20:38

Архив Дневник слабака / Diary of a Wimpy Kid (Тор Фреденталь) [2010 г., комедия, семейный, HD DVDRip] Joey
2 | 0

1 | 1135

9

05.11.2011 14:44

8sirius8 Пол:Муж

29-Ноя-2012 22:53

"Укуренный" фильм смотреть можно если только реально занятся нечем и смотреть нечего

Яндекс.Метрика powered by Sphinx


В Н И М А Н И Е
Сайт не распространяет и не хранит электронные версии произведений, а лишь бесплатно и без коммерческой выгоды (не требуя взамен платы,
SMS и т.д.) предоставляет доступ к создаваемому пользователями каталогу ссылок на торрент-файлы, которые содержат только списки хеш-сумм.
Убедительная просьба с жалобами обращаться напрямую к пользователю, разместившему торрент файл.

Вверх