Loading...
Error

Самый пьяный округ в мире / Lawless (Джон Хиллкоут) [2012 г., драма, криминал, BDRip-AVC] DVO + Original

Статистика раздачи
Размер:  2,18 GB   |    Зарегистрирован:  4 года   |    Скачан:  6 раз

Полного источника не было: 3 года 4 месяца

Сидов:  0  |  0 KB/s  ]   Личеров:  0  |  0 KB/s  ]

* - сиды/пиры с внешних источников

   
 
Автор Сообщение

Garnett Пол:Муж

28-Ноя-2012 17:04

Самый пьяный округ в мире / Lawless


Год выпуска: 2012
Жанр: драма, криминал
Страна: США
Режиссер: Джон Хиллкоут
В ролях: Шайа ЛаБаф, Том Харди, Гари Олдман, Джессика Честейн, Гай Пирс, Джейсон Кларк, Миа Васиковска, Дэйн ДеХаан, Крис МакГарри, Тим Толин
Сюжет фильма:
Действие в картине разворачивается на американском Юге во времена сухого закона и Великой Депрессии. В центре сюжета — семья Бондурант, три брата, Джек, Форрест и Говард, которые занимаются запрещенным в то время бизнесом, бутлегерством.

Оптимистично настроенный Джек, самый молодой из братьев, надеется с помощью бутлегерства заработать денег и произвести впечатление на свою девушку Берту. В это же время Форрест, напротив, настроен очень мрачно, он молчалив и подозрителен, а Говарду к тому же часто приходится иметь дело с врагами незаконного семейного бизнеса, в лице которых выступают коррумпированные местные полицейские.

  • Мировая премьера: 19 мая 2012
  • Российская премьера: 6 декабря 2012, «West»

Качество видео: BDRip-AVC

Продолжительность: 01:55:45
Формат: MKV
Видео: x264, 1032 x 430, 1 799 Kbps
Аудио #1: русский, двухголосый закадровый [любительский], AC3 5.1, 448.00 kbps
Аудио #2: английский, оригинал, AC3 5.1, 448.00 kbps

Код:

Общее
Уникальный идентификатор                 : 232649206202984542365420544339524630452 (0xAF069B7677C06648BE70C0B7A9FEB7B4)
Полное имя                               : F:\RG25KADR\Samiy.Pyaniy.Okrug.V.Mire.2012.BDRip.x264.ac3.L-RG.25.Kadr.mkv
Формат                                   : Matroska
Версия формата                           : Version 2
Размер файла                             : 2,18 Гбайт
Продолжительность                        : 1 ч. 55 м.
Общий поток                              : 2694 Кбит/сек
Название фильма                          : Не признающие власти / Самый пьяный округ в мире / Lawless [2012  г.] | Рип L [RG 25 Кадр]
Дата кодирования                         : UTC 2012-11-25 20:02:51
Программа кодирования                    : mkvmerge v3.2.0 ('Beginnings') built on Feb 12 2010 16:46:17
Библиотека кодирования                   : libebml v0.7.9 + libmatroska v0.8.1
Видео
Идентификатор                            : 1
Формат                                   : AVC
Формат/Информация                        : Advanced Video Codec
Профиль формата                          : High@L4.1
Параметр CABAC формата                   : Да
Параметр ReFrames формата                : 14 кадров
Идентификатор кодека                     : V_MPEG4/ISO/AVC
Продолжительность                        : 1 ч. 55 м.
Битрейт                                  : 1799 Кбит/сек
Ширина                                   : 1032 пикселя
Высота                                   : 430 пикселей
Соотношение сторон                       : 2,40:1
Режим частоты кадров                     : Постоянный
Частота кадров                           : 23,976 кадра/сек
Цветовое пространство                    : YUV
Субдискретизация насыщенности            : 4:2:0
Битовая глубина                          : 8 бит
Тип развёртки                            : Прогрессивная
Бит/(Пиксели*Кадры)                      : 0.169
Размер потока                            : 1,41 Гбайт (65%)
Библиотека кодирования                   : x264 core 125 r2200 999b753
Настройки программы                      : cabac=1 / ref=14 / deblock=1:-2:-1 / analyse=0x3:0x133 / me=umh / subme=11 / psy=1 / psy_rd=1.10:0.05 / mixed_ref=1 / me_range=32 / chroma_me=1 / trellis=2 / 8x8dct=1 / cqm=0 / deadzone=21,11 / fast_pskip=0 / chroma_qp_offset=-3 / threads=6 / lookahead_threads=1 / sliced_threads=0 / nr=0 / decimate=1 / interlaced=0 / bluray_compat=0 / constrained_intra=0 / bframes=8 / b_pyramid=2 / b_adapt=2 / b_bias=0 / direct=3 / weightb=1 / open_gop=0 / weightp=2 / keyint=240 / keyint_min=22 / scenecut=40 / intra_refresh=0 / rc=2pass / mbtree=0 / bitrate=1799 / ratetol=1.0 / qcomp=0.70 / qpmin=10 / qpmax=61 / qpstep=4 / cplxblur=20.0 / qblur=0.5 / ip_ratio=1.40 / pb_ratio=1.30 / aq=1:0.70
Язык                                     : English
Default                                  : Нет
Forced                                   : Нет
Аудио #1
Идентификатор                            : 2
Формат                                   : AC-3
Формат/Информация                        : Audio Coding 3
Расширение режима                        : CM (complete main)
Параметр Endianness формата              : Big
Идентификатор кодека                     : A_AC3
Продолжительность                        : 1 ч. 55 м.
Вид битрейта                             : Постоянный
Битрейт                                  : 448 Кбит/сек
Каналы                                   : 6 каналов
Расположение каналов                     : Front: L C R, Side: L R, LFE
Частота                                  : 48,0 КГц
Битовая глубина                          : 16 бит
Метод сжатия                             : С потерями
Размер потока                            : 371 Мбайт (17%)
Заголовок                                : Многоголосый
Язык                                     : Russian
Default                                  : Да
Forced                                   : Нет
Аудио #2
Идентификатор                            : 3
Формат                                   : AC-3
Формат/Информация                        : Audio Coding 3
Расширение режима                        : CM (complete main)
Параметр Endianness формата              : Big
Идентификатор кодека                     : A_AC3
Продолжительность                        : 1 ч. 55 м.
Вид битрейта                             : Постоянный
Битрейт                                  : 448 Кбит/сек
Каналы                                   : 6 каналов
Расположение каналов                     : Front: L C R, Side: L R, LFE
Частота                                  : 48,0 КГц
Битовая глубина                          : 16 бит
Метод сжатия                             : С потерями
Размер потока                            : 371 Мбайт (17%)
Заголовок                                : Оригинал
Язык                                     : Russian
Default                                  : Нет
Forced                                   : Нет
Текст #1
Идентификатор                            : 4
Формат                                   : UTF-8
Идентификатор кодека                     : S_TEXT/UTF8
Идентификатор кодека/Информация          : UTF-8 Plain Text
Язык                                     : Russian
Default                                  : Да
Forced                                   : Нет
Текст #2
Идентификатор                            : 5
Формат                                   : UTF-8
Идентификатор кодека                     : S_TEXT/UTF8
Идентификатор кодека/Информация          : UTF-8 Plain Text
Язык                                     : English
Default                                  : Нет
Forced                                   : Нет
Меню
00:00:00.000                             : en:00:00:00.000
00:04:36.818                             : en:00:04:36.818
00:09:16.639                             : en:00:09:16.639
00:14:39.587                             : en:00:14:39.587
00:21:55.689                             : en:00:21:55.689
00:26:34.343                             : en:00:26:34.343
00:34:23.895                             : en:00:34:23.895
00:41:06.964                             : en:00:41:06.964
00:48:30.825                             : en:00:48:30.825
00:56:45.652                             : en:00:56:45.652
01:05:11.074                             : en:01:05:11.074
01:11:21.903                             : en:01:11:21.903
01:19:30.724                             : en:01:19:30.724
01:25:00.887                             : en:01:25:00.887
01:31:49.838                             : en:01:31:49.838
01:37:32.889                             : en:01:37:32.889
01:44:44.737                             : en:01:44:44.737
01:49:07.708                             : en:01:49:07.708
picpicpic
Для увеличения картинки щелкните мышкой по превью

Этот торрент недоступен для скачивания без регистрации, однако доступен по публичной magnet-ссылке (источники с публичных трекеров). Перед использованием ссылки прочтите, пожалуйста Пользовательское соглашение, а также как можно дольше оставайтесь на раздаче! Для того, чтобы скачать сам торрент-файл (который видит больше источников), а также для того, чтобы поблагодарить релизера, вам необходимо зарегистрироваться. Если регистрироваться лень - вы можете также попробовать скачать релиз по нашим партнерским ссылкам ниже.

[underverse.su].t21653.torrent
Трекер: Зарегистрирован   [ 28.11.2012 17:04 ]  

Статус: проверено (by garry at 28.11.2012 19:24)
Поблагодарили: пока никто не поблагодарил...
Тип торрента: публичный - доступные источники с открытых трекеров: 
Размер: 2,18 GB (занимает 1/2 DVDR, для записи нужно 1 болванка DVDR/RW)
 
 
Похожие темы
Форум Тема Автор Торрент Отв. Посл. сооб.
Зарубежное кино [DVDRip, Low-Res HDRip, и т.д.] Самый пьяный округ в мире / Lawless (Джон Хиллкоут) [2012 г., драма, криминал, вестерн, HDRip] DVO + Original 90ytr90
2 | 0

0 | 534

39

25.11.2012 19:03

Зарубежное кино [DVDRip, Low-Res HDRip, и т.д.] Самый пьяный округ в мире / Lawless (Джон Хиллкоут) [2012 г., драма, криминал, вестерн, HDRip] AVO (Ю.Сербин) 90ytr90
0 | 0

0 | 496

26

06.12.2012 20:25

Зарубежное кино [DVDRip, Low-Res HDRip, и т.д.] Самый пьяный округ в мире / Lawless (Джон Хиллкоут) [2012 г., драма, криминал, вестерн, HDRip] AVO (Ю.Сербин) 90ytr90
3 | 0

0 | 312

2

06.12.2012 20:41

Зарубежное кино [DVDRip, Low-Res HDRip, и т.д.] Самый пьяный округ в мире / Lawless (Джон Хиллкоут) [2012 г., драма, криминал, HDRip] Dub RG NewCinema
59 | 1

0 | 1050

23

30.01.2013 07:20

Зарубежное кино [DVDRip, Low-Res HDRip, и т.д.] Самый пьяный округ в мире / Lawless (Джон Хиллкоут) [2012 г., драма, криминал, HDRip] Dub + Original RG NewCinema
0 | 0

0 | 407

33

30.01.2013 07:49


Яндекс.Метрика powered by Sphinx


В Н И М А Н И Е
Сайт не распространяет и не хранит электронные версии произведений, а лишь бесплатно и без коммерческой выгоды (не требуя взамен платы,
SMS и т.д.) предоставляет доступ к создаваемому пользователями каталогу ссылок на торрент-файлы, которые содержат только списки хеш-сумм.
Убедительная просьба с жалобами обращаться напрямую к пользователю, разместившему торрент файл.

Вверх