Loading...
Error

Телохранитель 4 / серии: 1-16 (16) (Валерий Игнатьев) [2012 г., детектив, криминал, боевик, SATRip]

Статистика раздачи
Размер:  8,84 GB   |    Зарегистрирован:  4 года   |    Скачан:  8 раз

Полного источника не было: 2 года

Сидов:  0  |  0 KB/s  ]   Личеров:  0  |  0 KB/s  ]

* - сиды/пиры с внешних источников

   
 
Автор Сообщение

nemos Пол:Муж

26-Ноя-2012 16:25


Год выпуска: 2012
Жанр: детектив, криминал, боевик
Страна: Россия
Режиссер: Валерий Игнатьев
В ролях: Марина Богатова, Эдуард Трухменёв, Татьяна Демидова, Жанна Коханова, Виктория Герасимова, Герман Иванов, Юлия Назаренко, Константин Шелягин, Ульяна Коптяева, Максим Дромашко, Жанна Оганесян, Денис Игнатов
Сюжет фильма:
Главные герои картины — профессиональные телохранители из агентства "Группа-Р". Находясь день и ночь рядом с людьми, доверившими им жизнь свою и своих близких, им приходится скрупулезно изучать жизнь клиента, чтобы устранить угрожающую ему опасность. Криминальным группам приходится изобретать все более изощренные способы преследования своих жертв. Зрителям же, остается лишь гадать, что на сей раз выкинут злоумышленники и что предпримут телохранители, чтобы предотвратить нежелательные последствия для своих клиентов.


Качество видео: SatRip

Продолжительность: 00:45:03серия
Формат: AVI
Видео: XviD, 720x384, 1551 kbps
Аудио: русский, MP3 2.0, 192 kbps

Код:

G:\СКАЧКИ\С underverse\Telohranitel-4 2012\Telohranitel-4.(16.seriya).2012.XviD.SATRip.GENERALFILM.avi
   General
      Complete name : G:\СКАЧКИ\С underverse\Telohranitel-4 2012\Telohranitel-4.(16.seriya).2012.XviD.SATRip.GENERALFILM.avi
      Format : AVI
      Format/Info : Audio Video Interleave
      File size : 565 MiB
      Duration : 45mn 3s
      Overall bit rate : 1 753 Kbps
      Writing application : VirtualDubModRus 1.5.10.2 (build 2542/release)
      Writing library : Boilsoft AVI tool build 1/release
   Video #0
      ID : 0
      Format : MPEG-4 Visual
      Format profile : Advanced Simple@L5
      Format settings, BVOP : 1
      Format settings, QPel : No
      Format settings, GMC : No warppoints
      Format settings, Matrix : Default (H.263)
      Codec ID : XVID
      Codec ID/Hint : XviD
      Duration : 45mn 3s
      Bit rate : 1 551 Kbps
      Width : 720 pixels
      Height : 384 pixels
      Display aspect ratio : 1.85:1
      Frame rate : 25.000 fps
      Color space : YUV
      Chroma subsampling : 4:2:0
      Bit depth : 8 bits
      Scan type : Progressive
      Compression mode : Lossy
      Bits/(Pixel*Frame) : 0.224
      Stream size : 500 MiB (88%)
      Writing library : XviD 1.2.1 (UTC 2008-12-04)
   Audio #1
      ID : 1
      Format : MPEG Audio
      Format version : Version 1
      Format profile : Layer 3
      Mode : Joint stereo
      Mode extension : MS Stereo
      Codec ID : 55
      Codec ID/Hint : MP3
      Duration : 45mn 3s
      Bit rate mode : Constant
      Bit rate : 192 Kbps
      Channel(s) : 2 channels
      Sampling rate : 48.0 KHz
      Compression mode : Lossy
      Stream size : 61.9 MiB (11%)
      Alignment : Aligned on interleaves
      Interleave, duration : 40 ms (1.00 video frame)
      Interleave, preload duration : 504 ms
      Writing library : LAME3.98r
      Encoding settings : -m j -V 4 -q 2 -lowpass 18.6 -b 192
Семпл: http://multi-up.com/795212

picpicpicpicpicpicpicpicpicpicpicpicpicpic
Для увеличения картинки щелкните мышкой по превью

Этот торрент недоступен для скачивания без регистрации, однако доступен по публичной magnet-ссылке (источники с публичных трекеров). Перед использованием ссылки прочтите, пожалуйста Пользовательское соглашение, а также как можно дольше оставайтесь на раздаче! Для того, чтобы скачать сам торрент-файл (который видит больше источников), а также для того, чтобы поблагодарить релизера, вам необходимо зарегистрироваться. Если регистрироваться лень - вы можете также попробовать скачать релиз по нашим партнерским ссылкам ниже.

[underverse.su].t21605.torrent
Трекер: Зарегистрирован   [ 26.11.2012 16:25 ]  

Статус: проверено (by garry at 26.11.2012 16:59)
Поблагодарили: 1 человек
Тип торрента: публичный - доступные источники с открытых трекеров: 
Размер: 8,84 GB (занимает 2,02 DVDR, для записи нужно 3 болванки DVDR/RW)
 
 
Похожие темы
Форум Тема Автор Торрент Отв. Посл. сооб.
Зарубежное кино [DVDRip, Low-Res HDRip, и т.д.] Телохранитель / London Boulevard (Уильям Монахэн) [2010 г., драма, криминал, BDRip] Dub + Original garry
3 | 0

0 | 397

12

18.12.2012 19:42

T Зарубежное кино [DVDRip, Low-Res HDRip, и т.д.] Телохранитель / Maryland (Алис Винокур) [2015 г., триллер, драма, HDRip] MVO makkol
233 | 6

0 | 579

44

14.02.2016 21:43

xUSSR сериалы Телохранитель (1-4 серии из 4) (Александр Калугин) [ 2014 г., боевик, SatRip] nemos
2 | 0

1 | 583

20

24.10.2014 17:39

xUSSR сериалы Телохранитель (1-3 сезоны: 1-36 серии из 36) (Андрей Джунковский, Влад Фурман) [2006-2010 г., детектив, криминал, боевик, DVDRip] nemos
0 | 0

1 | 920

7

24.10.2014 20:22

Зарубежное кино [DVD / HDDVD / BD / Remux] Телохранитель / London Boulevard (Уильям Монахэн) [2010 г., мелодрама, криминальный, DVD-9] SKRiptus
0 | 0

1 | 1353

3

02.03.2011 13:38

T Зарубежное кино [HDDVDRip / BDRip / WEB-DL / HDTV 1080/720р] Телохранитель / Maryland (Алис Винокур) [2015 г., триллер, драма, BDRip 1080p] MVO + Original makkol
3 | 0

0 | 635

29

14.02.2016 21:50

T Зарубежное кино [HDDVDRip / BDRip / WEB-DL / HDTV 1080/720р] Телохранитель / Maryland (Алис Винокур / Alice Winocour) [2015 г., триллер, драма, BDRip 720p] MVO (iTunes) + Original (Fre) 90ytr90
19 | 1

0 | 572

11

17.02.2016 07:08

Архив Телохранитель / The Bodyguard (Мик Джексон) [1992 г., триллер, мело, драма, DVDRip] Saggitarius
0 | 0

1 | 960

2

05.11.2011 14:44

Архив Телохранитель / The Bodyguard (Мик Джексон /Mick Jackson) [1992 г., триллер, мелодрамма, DVD-9] Dmitriy
0 | 0

6 | 1886

14

17.02.2011 14:46


Яндекс.Метрика powered by Sphinx


В Н И М А Н И Е
Сайт не распространяет и не хранит электронные версии произведений, а лишь бесплатно и без коммерческой выгоды (не требуя взамен платы,
SMS и т.д.) предоставляет доступ к создаваемому пользователями каталогу ссылок на торрент-файлы, которые содержат только списки хеш-сумм.
Убедительная просьба с жалобами обращаться напрямую к пользователю, разместившему торрент файл.

Вверх