Loading...
Error

УГРО. Простые парни 4 / Серии: 1-20 (20) (Марина Любакова, Михаил Галин) [2012 г., детектив, криминал, SATRip]

Статистика раздачи
Размер:  10,85 GB   |    Зарегистрирован:  3 года 11 месяцев   |    Скачан:  7 раз

Полного источника не было: 2 года

Сидов:  0  |  0 KB/s  ]   Личеров:  0  |  0 KB/s  ]

* - сиды/пиры с внешних источников

   
 
Автор Сообщение

nemos Пол:Муж

26-Ноя-2012 12:35


Год выпуска: 2012
Жанр: Детектив, криминал
Страна: Россия
Режиссер: Марина Любакова, Михаил Галин
В ролях: Виктор Бунаков, Сергей Губанов, Роман Шумилов, Сергей Ланбамин, Дмитрий Прокофьев, Лариса Негреева, Инна Капнулина, Мария Федосова, Владимир Виноградов, Светлана Давыдова
Сюжет фильма:
Главные герои — уже знакомые зрителям «сыскари» — Мазуров, Астафьев, Пронин, Фортуна, Игнатов. В четвертом сезоне они будут ловить преступника на живца, в качестве которого будет выступать вор в законе по кличке Боровец. Затем опера возьмутся за особое дело о пропаже контейнера с сигаретами стоимостью в несколько десятков миллионов рублей.


Качество видео: SatRip

Продолжительность: 00:46:28 серия
Формат: AVI
Видео: XviD, 704x384, 1 668 kbps
Аудио: русский, MP3 2.0,128 kbps
Субтитры: тип: вшитые неотключаемые, украинский

Код:

G:\СКАЧКИ\С underverse\УГРО_Простые парни-4\УГРО_Простые парни-4_20.avi
   General
      Complete name : G:\СКАЧКИ\С underverse\УГРО_Простые парни-4\УГРО_Простые парни-4_20.avi
      Format : AVI
      Format/Info : Audio Video Interleave
      File size : 601 MiB
      Duration : 46mn 28s
      Overall bit rate : 1 809 Kbps
      Writing application : XviD4PSP 6.0 / 53.6.0
      Writing library : VirtualDub build 32593/release
   Video #0
      ID : 0
      Format : MPEG-4 Visual
      Format profile : Simple@L3
      Format settings, BVOP : No
      Format settings, QPel : No
      Format settings, GMC : No warppoints
      Format settings, Matrix : Default (H.263)
      Codec ID : XVID
      Codec ID/Hint : XviD
      Duration : 46mn 28s
      Bit rate : 1 668 Kbps
      Width : 704 pixels
      Height : 384 pixels
      Display aspect ratio : 1.85:1
      Frame rate : 25.000 fps
      Color space : YUV
      Chroma subsampling : 4:2:0
      Bit depth : 8 bits
      Scan type : Progressive
      Compression mode : Lossy
      Bits/(Pixel*Frame) : 0.247
      Stream size : 554 MiB (92%)
      Writing library : XviD 64
   Audio #1
      ID : 1
      Format : MPEG Audio
      Format version : Version 1
      Format profile : Layer 3
      Mode : Joint stereo
      Mode extension : MS Stereo
      Codec ID : 55
      Codec ID/Hint : MP3
      Duration : 46mn 28s
      Bit rate mode : Constant
      Bit rate : 128 Kbps
      Channel(s) : 2 channels
      Sampling rate : 48.0 KHz
      Compression mode : Lossy
      Stream size : 42.6 MiB (7%)
      Alignment : Aligned on interleaves
      Interleave, duration : 24 ms (0.60 video frame)
      Interleave, preload duration : 504 ms
Семпл: http://multi-up.com/795155

picpicpicpicpicpicpicpicpicpicpic
Для увеличения картинки щелкните мышкой по превью

Этот торрент недоступен для скачивания без регистрации, однако доступен по публичной magnet-ссылке (источники с публичных трекеров). Перед использованием ссылки прочтите, пожалуйста Пользовательское соглашение, а также как можно дольше оставайтесь на раздаче! Для того, чтобы скачать сам торрент-файл (который видит больше источников), а также для того, чтобы поблагодарить релизера, вам необходимо зарегистрироваться. Если регистрироваться лень - вы можете также попробовать скачать релиз по нашим партнерским ссылкам ниже.

[underverse.su].t22323.torrent
Трекер: Зарегистрирован   [ 14.12.2012 13:18 ]  

Статус: проверено (by garry at 14.12.2012 14:13)
Поблагодарили: 1 человек
Тип торрента: публичный - доступные источники с открытых трекеров: 
Размер: 10,85 GB (занимает 2,48 DVDR, для записи нужно 3 болванки DVDR/RW)
 
 
Похожие темы
Форум Тема Автор Торрент Отв. Посл. сооб.
xUSSR сериалы УГРО. Простые парни / Серии: 1-12 (12) (Марина Видинеева, Николай Прапорщиков) [2007 г., детектив, криминал, DVDRip] nemos
0 | 0

0 | 520

4

26.11.2012 11:15

xUSSR сериалы УГРО. Простые парни 2 / Серии: 1-12 (12) (Рано Кубаева) [2008 г., детектив, криминал, DVDRip] nemos
0 | 0

0 | 489

4

26.11.2012 11:40

xUSSR сериалы УГРО. Простые парни 3 / Серии: 1-16 (16) (Марина Любакова, Анатолий Артамонов) [2010 г., детектив, криминал, SATRip] nemos
0 | 0

0 | 506

7

26.11.2012 12:03

xUSSR сериалы УГРО. Простые парни-5 (1-24 серии из 24) (Дмитрий Матов, Юрий Попович) [2013 г., детектив, SatRip] nemos
1 | 0

1 | 1878

7

01.04.2014 15:41



Последний раз редактировалось: nemos (06.11.2014 12:36), всего редактировалось 9 раз(а)

nemos Пол:Муж

29-Ноя-2012 14:08

Обновлена добавлена 13 серия

nemos Пол:Муж

14-Дек-2012 13:23

Обновлена добавлены все серии

Яндекс.Метрика powered by Sphinx


В Н И М А Н И Е
Сайт не распространяет и не хранит электронные версии произведений, а лишь бесплатно и без коммерческой выгоды (не требуя взамен платы,
SMS и т.д.) предоставляет доступ к создаваемому пользователями каталогу ссылок на торрент-файлы, которые содержат только списки хеш-сумм.
Убедительная просьба с жалобами обращаться напрямую к пользователю, разместившему торрент файл.

Вверх