Loading...
Error

УГРО. Простые парни 3 / Серии: 1-16 (16) (Марина Любакова, Анатолий Артамонов) [2010 г., детектив, криминал, SATRip]

Статистика раздачи
Размер:  7,88 GB   |    Зарегистрирован:  4 года   |    Скачан:  7 раз

Полного источника не было: 2 года

Сидов:  0  |  0 KB/s  ]   Личеров:  0  |  0 KB/s  ]

* - сиды/пиры с внешних источников

   
 
Автор Сообщение

nemos Пол:Муж

26-Ноя-2012 12:03

УГРО. Простые парни 3


Год выпуска: 2010
Жанр: криминал, детектив
Страна: Россия
Режиссер: Рано Кубаева, Марина Любакова, Анатолий Артамонов
В ролях: Виктор Бунаков, Роман Шумилов, Дмитрий Прокофьев, Илья Алексеев, Сергей Губанов, Дмитрий Мазуров, Мария Федосова, Илья Бледный, Данила Ариков, Виталий Белау
Сюжет фильма:
Сериал о простых следователях из провинции. Преступления, с которыми столкнутся герои в новом сезоне, запутаны, преступники изобретательны, и операм впору сложить руки, но их девиз: "Кто, если не мы?!" На первый взгляд жизнь Тригорска течет мирно и размеренно. Казалось бы, ничего не может потревожить тишину и покой этого маленького провинциального городка. Но, как порой и случается, за спокойствием и уютом скрываются тайны, кипят страсти, совершаются преступления. Однако жители Тригорска могут быть уверены: что бы ни случилось, в борьбу с преступностью всегда готовы вступить бравые парни из УГРО.


Качество видео: SatRip

Продолжительность: 00:46:09 серия
Формат: AVI
Видео: XviD, 720х400, 1400 kbps
Аудио: русский, MP3 2.0, 128 kbps

Код:

G:\СКАЧКИ\С underverse\Ugro.prostie.parni.3.(01-16.serii.iz.16).2011.XviD.DivX.SATRip.RiperAM\Ugro.prostie.parni.3.(16.serija.iz.16).2011.XviD.SATRip.RiperAM.avi
   General
      Complete name : G:\СКАЧКИ\С underverse\Ugro.prostie.parni.3.(01-16.serii.iz.16).2011.XviD.DivX.SATRip.RiperAM\Ugro.prostie.parni.3.(16.serija.iz.16).2011.XviD.SATRip.RiperAM.avi
      Format : AVI
      Format/Info : Audio Video Interleave
      File size : 508 MiB
      Duration : 46mn 9s
      Overall bit rate : 1 538 Kbps
      Writing library : VirtualDub build 32706/release
   Video #0
      ID : 0
      Format : MPEG-4 Visual
      Format profile : Advanced Simple@L5
      Format settings, BVOP : 2
      Format settings, QPel : No
      Format settings, GMC : No warppoints
      Format settings, Matrix : Default (MPEG)
      Codec ID : XVID
      Codec ID/Hint : XviD
      Duration : 46mn 9s
      Bit rate : 1 400 Kbps
      Width : 720 pixels
      Height : 400 pixels
      Display aspect ratio : 16:9
      Frame rate : 25.000 fps
      Color space : YUV
      Chroma subsampling : 4:2:0
      Bit depth : 8 bits
      Scan type : Progressive
      Compression mode : Lossy
      Bits/(Pixel*Frame) : 0.194
      Stream size : 462 MiB (91%)
      Writing library : XviD 1.2.1 (UTC 2008-12-04)
   Audio #1
      ID : 1
      Format : MPEG Audio
      Format version : Version 1
      Format profile : Layer 3
      Mode : Joint stereo
      Mode extension : MS Stereo
      Codec ID : 55
      Codec ID/Hint : MP3
      Duration : 46mn 9s
      Bit rate mode : Constant
      Bit rate : 128 Kbps
      Channel(s) : 2 channels
      Sampling rate : 48.0 KHz
      Compression mode : Lossy
      Stream size : 42.3 MiB (8%)
      Alignment : Split accross interleaves
      Interleave, duration : 40 ms (1.00 video frame)
      Interleave, preload duration : 500 ms
Семпл: http://multi-up.com/795117

picpicpicpicpicpicpicpicpicpicpicpic
Для увеличения картинки щелкните мышкой по превью

Этот торрент недоступен для скачивания без регистрации, однако доступен по публичной magnet-ссылке (источники с публичных трекеров). Перед использованием ссылки прочтите, пожалуйста Пользовательское соглашение, а также как можно дольше оставайтесь на раздаче! Для того, чтобы скачать сам торрент-файл (который видит больше источников), а также для того, чтобы поблагодарить релизера, вам необходимо зарегистрироваться. Если регистрироваться лень - вы можете также попробовать скачать релиз по нашим партнерским ссылкам ниже.

[underverse.su].t21600.torrent
Трекер: Зарегистрирован   [ 26.11.2012 12:03 ]  

Статус: проверено (by garry at 26.11.2012 13:49)
Поблагодарили: 1 человек
Тип торрента: публичный - доступные источники с открытых трекеров: 
Размер: 7,88 GB (занимает 1,8 DVDR, для записи нужно 2 болванки DVDR/RW)
 
 
Похожие темы
Форум Тема Автор Торрент Отв. Посл. сооб.
xUSSR сериалы УГРО. Простые парни / Серии: 1-12 (12) (Марина Видинеева, Николай Прапорщиков) [2007 г., детектив, криминал, DVDRip] nemos
0 | 0

0 | 521

4

26.11.2012 11:15

xUSSR сериалы УГРО. Простые парни 2 / Серии: 1-12 (12) (Рано Кубаева) [2008 г., детектив, криминал, DVDRip] nemos
0 | 0

0 | 490

4

26.11.2012 11:40

xUSSR сериалы УГРО. Простые парни 4 / Серии: 1-20 (20) (Марина Любакова, Михаил Галин) [2012 г., детектив, криминал, SATRip] nemos
0 | 0

2 | 1144

7

14.12.2012 13:23

xUSSR сериалы УГРО. Простые парни-5 (1-24 серии из 24) (Дмитрий Матов, Юрий Попович) [2013 г., детектив, SatRip] nemos
1 | 0

1 | 1879

7

01.04.2014 15:41



Последний раз редактировалось: nemos (26.11.2012 13:28), всего редактировалось 1 раз

Яндекс.Метрика powered by Sphinx


В Н И М А Н И Е
Сайт не распространяет и не хранит электронные версии произведений, а лишь бесплатно и без коммерческой выгоды (не требуя взамен платы,
SMS и т.д.) предоставляет доступ к создаваемому пользователями каталогу ссылок на торрент-файлы, которые содержат только списки хеш-сумм.
Убедительная просьба с жалобами обращаться напрямую к пользователю, разместившему торрент файл.

Вверх