Loading...
Error

УГРО. Простые парни 2 / Серии: 1-12 (12) (Рано Кубаева) [2008 г., детектив, криминал, DVDRip]

Статистика раздачи
Размер:  4,7 GB   |    Зарегистрирован:  4 года   |    Скачан:  4 раза

Полного источника не было: 11 месяцев

Сидов:  0  |  0 KB/s  ]   Личеров:  0  |  0 KB/s  ]

* - сиды/пиры с внешних источников

   
 
Автор Сообщение

nemos Пол:Муж

26-Ноя-2012 11:40

УГРО. Простые парни 2


Год выпуска: 2008
Жанр: Криминал, детектив
Страна: Россия
Режиссер: Рано Кубаева
В ролях: Михаил Солодко, Илья Алексеев, Виктор Бунаков, Мария Федосова, Дмитрий Прокофьев, Роман Шумилов, Дмитрий Дьяконов, Владимир Яворский, Юлия Силаева, Лариса Негреева
Сюжет фильма:
В Тригорск из Чечни возвращается скрывавшийся там начальник УГРО Тригорска Николай Гомула. Одновременно с ним в город из Москвы приезжает Федор Сухов с приемной дочерью Олесей, чтобы выступить в суде по делу Романа Сидоренко. Внезапно погибает жена Сидоренко Рая, а Олесю похищают неизвестные.

Сын Сидоренко Саша сбегает из тюрьмы, чтобы найти компромат на Гомулу, который, боясь за свою репутацию, пытается заставить Сухова отказаться от показаний против Сидоренко. Сотрудники УГРО уверены, что причина этих событий — передел сфер влияния в наркобизнесе Тригорска, который контролировал Роман.


Качество видео: DVDRip

Продолжительность: 00:52:05 серия
Формат: AVI
Видео: DivX, 576x416, 970 kbps
Аудио: русский, MP3 2.0, 96 kbps

Код:

G:\СКАЧКИ\С underverse\Ugro.prostie.parni.2.2008.DivX.DVDRip\Ugro.prostie.parni.2.2008.DivX.DVDRip(part.12).avi
   General
      Complete name : G:\СКАЧКИ\С underverse\Ugro.prostie.parni.2.2008.DivX.DVDRip\Ugro.prostie.parni.2.2008.DivX.DVDRip(part.12).avi
      Format : AVI
      Format/Info : Audio Video Interleave
      File size : 401 MiB
      Duration : 52mn 5s
      Overall bit rate : 1 075 Kbps
      Writing application : FairUse Wizard - http://fairusewizard.com
      Writing library : The best and REALLY easy backup tool
   Video #0
      ID : 0
      Format : MPEG-4 Visual
      Format settings, BVOP : 1
      Format settings, QPel : No
      Format settings, GMC : No warppoints
      Format settings, Matrix : Default (H.263)
      Muxing mode : Packed bitstream
      Codec ID : DX50
      Codec ID/Hint : DivX 5
      Duration : 52mn 5s
      Bit rate : 970 Kbps
      Width : 576 pixels
      Height : 416 pixels
      Display aspect ratio : 1.385
      Frame rate : 25.000 fps
      Color space : YUV
      Chroma subsampling : 4:2:0
      Bit depth : 8 bits
      Scan type : Progressive
      Compression mode : Lossy
      Bits/(Pixel*Frame) : 0.162
      Stream size : 361 MiB (90%)
      Writing library : DivX 5.2.1 (DrDivX 106) (UTC 2004-09-08)
   Audio #1
      ID : 1
      Format : MPEG Audio
      Format version : Version 1
      Format profile : Layer 3
      Mode : Joint stereo
      Mode extension : MS Stereo
      Codec ID : 55
      Codec ID/Hint : MP3
      Duration : 52mn 5s
      Bit rate mode : Constant
      Bit rate : 96.0 Kbps
      Channel(s) : 2 channels
      Sampling rate : 48.0 KHz
      Compression mode : Lossy
      Stream size : 35.8 MiB (9%)
      Alignment : Aligned on interleaves
      Interleave, duration : 40 ms (1.00 video frame)
      Interleave, preload duration : 504 ms
      Writing library : LAME3.97b
      Encoding settings : -m j -V 4 -q 2 -lowpass 16 -b 96
Семпл: http://multi-up.com/795108

picpicpicpicpicpicpicpicpicpicpicpic
Для увеличения картинки щелкните мышкой по превью

Этот торрент недоступен для скачивания без регистрации, однако доступен по публичной magnet-ссылке (источники с публичных трекеров). Перед использованием ссылки прочтите, пожалуйста Пользовательское соглашение, а также как можно дольше оставайтесь на раздаче! Для того, чтобы скачать сам торрент-файл (который видит больше источников), а также для того, чтобы поблагодарить релизера, вам необходимо зарегистрироваться. Если регистрироваться лень - вы можете также попробовать скачать релиз по нашим партнерским ссылкам ниже.

[underverse.su].t21599.torrent
Трекер: Зарегистрирован   [ 26.11.2012 11:40 ]  

Статус: проверено (by garry at 26.11.2012 13:47)
Поблагодарили: 1 человек
Тип торрента: публичный - доступные источники с открытых трекеров: 
Размер: 4,7 GB (занимает 1,07 DVDR, для записи нужно 2 болванки DVDR/RW)
 
 
Похожие темы
Форум Тема Автор Торрент Отв. Посл. сооб.
xUSSR сериалы УГРО. Простые парни / Серии: 1-12 (12) (Марина Видинеева, Николай Прапорщиков) [2007 г., детектив, криминал, DVDRip] nemos
0 | 0

0 | 520

4

26.11.2012 11:15

xUSSR сериалы УГРО. Простые парни 3 / Серии: 1-16 (16) (Марина Любакова, Анатолий Артамонов) [2010 г., детектив, криминал, SATRip] nemos
0 | 0

0 | 506

7

26.11.2012 12:03

xUSSR сериалы УГРО. Простые парни 4 / Серии: 1-20 (20) (Марина Любакова, Михаил Галин) [2012 г., детектив, криминал, SATRip] nemos
0 | 0

2 | 1142

7

14.12.2012 13:23

xUSSR сериалы УГРО. Простые парни-5 (1-24 серии из 24) (Дмитрий Матов, Юрий Попович) [2013 г., детектив, SatRip] nemos
1 | 0

1 | 1877

7

01.04.2014 15:41



Последний раз редактировалось: nemos (26.11.2012 13:26), всего редактировалось 1 раз

Яндекс.Метрика powered by Sphinx


В Н И М А Н И Е
Сайт не распространяет и не хранит электронные версии произведений, а лишь бесплатно и без коммерческой выгоды (не требуя взамен платы,
SMS и т.д.) предоставляет доступ к создаваемому пользователями каталогу ссылок на торрент-файлы, которые содержат только списки хеш-сумм.
Убедительная просьба с жалобами обращаться напрямую к пользователю, разместившему торрент файл.

Вверх