Loading...
Error

УГРО. Простые парни / Серии: 1-12 (12) (Марина Видинеева, Николай Прапорщиков) [2007 г., детектив, криминал, DVDRip]

Статистика раздачи
Размер:  4,1 GB   |    Зарегистрирован:  4 года   |    Скачан:  4 раза

Полного источника не было: 2 года

Сидов:  0  |  0 KB/s  ]   Личеров:  0  |  0 KB/s  ]

* - сиды/пиры с внешних источников

   
 
Автор Сообщение

nemos Пол:Муж

26-Ноя-2012 11:15

УГРО. Простые парни


Год выпуска: 2007
Жанр: Детектив, криминал
Страна: Россия
Режиссер: Рано Кубаева, Марина Видинеева, Николай Прапорщиков
В ролях: Михаил Солодко, Илья Алексеев, Виталий Кудрявцев, Виктор Бунаков, Дмитрий Дьяконов, Роман Индык, Дмитрий Прокофьев, Евгений Самарин, Юлия Силаева, Наталья Сычева
Сюжет фильма:
Захватывающие события фильма разворачиваются в провинциальном городе Тригорске. В отличае от других знаменитых «ментов», которых зрители привыкли видеть на фоне больших городов, герои нашего фильма — жители русской провинции. Зритель попадает в плен чудесного обаяния русской глубинки: небольшие дома, уютные сады, живописные улицы.

Однако о спокойной жизни служители правопорядка могут только мечтать. Привыкшие ходить «под пулями» сотрудники УГРО, во главе с майором Колодниковым, зачастую сами оказываются вовлечены в водоворот криминальных событий: им угрожают, пытаются шантажировать… Их профессия опасна для жизни. Но всегда смертельный риск оправдывается трезвым расчетом профессионалов. Бандитам города Тригорска приходится нелегко.


Качество видео: DVDRip

Продолжительность: 00:48:00 серия
Формат: AVI
Видео: XviD, 720x544, 884 kbps
Аудио: русский, MP3 2.0, 128 kbps

Код:

G:\СКАЧКИ\С underverse\Ugro.Prostie.Parni.(1.sezon.12.seriy.iz.12).2007.XviD.DVDRip\Ugro.Prostie.Parni.(1.sezon.12.serija.iz.12).2007.XviD.DVDRip.avi
   General
      Complete name : G:\СКАЧКИ\С underverse\Ugro.Prostie.Parni.(1.sezon.12.seriy.iz.12).2007.XviD.DVDRip\Ugro.Prostie.Parni.(1.sezon.12.serija.iz.12).2007.XviD.DVDRip.avi
      Format : AVI
      Format/Info : Audio Video Interleave
      File size : 350 MiB
      Duration : 48mn 0s
      Overall bit rate : 1 019 Kbps
      Writing application : VirtualDubMod 1.5.4.1 (build 2178/release)
      Writing library : VirtualDubMod build 2178/release
   Video #0
      ID : 0
      Format : MPEG-4 Visual
      Format profile : Advanced Simple@L5
      Format settings, BVOP : 1
      Format settings, QPel : No
      Format settings, GMC : No warppoints
      Format settings, Matrix : Custom
      Codec ID : XVID
      Codec ID/Hint : XviD
      Duration : 48mn 0s
      Bit rate : 884 Kbps
      Width : 720 pixels
      Height : 544 pixels
      Display aspect ratio : 4:3
      Frame rate : 25.000 fps
      Color space : YUV
      Chroma subsampling : 4:2:0
      Bit depth : 8 bits
      Scan type : Progressive
      Compression mode : Lossy
      Bits/(Pixel*Frame) : 0.090
      Stream size : 303 MiB (87%)
      Writing library : XviD 1.1.2 (UTC 2006-11-01)
   Audio #1
      ID : 1
      Format : MPEG Audio
      Format version : Version 1
      Format profile : Layer 3
      Mode : Joint stereo
      Mode extension : MS Stereo
      Codec ID : 55
      Codec ID/Hint : MP3
      Duration : 48mn 0s
      Bit rate mode : Constant
      Bit rate : 128 Kbps
      Channel(s) : 2 channels
      Sampling rate : 48.0 KHz
      Compression mode : Lossy
      Delay relative to video : 24ms
      Stream size : 43.9 MiB (13%)
      Alignment : Aligned on interleaves
      Interleave, duration : 80 ms (2.00 video frames)
      Interleave, preload duration : 504 ms
      Writing library : LAME3.97
      Encoding settings : -m j -V 4 -q 2 -lowpass 17 -b 128
Семпл: http://multi-up.com/795097

picpicpicpicpicpicpicpicpicpic
Для увеличения картинки щелкните мышкой по превью

Этот торрент недоступен для скачивания без регистрации, однако доступен по публичной magnet-ссылке (источники с публичных трекеров). Перед использованием ссылки прочтите, пожалуйста Пользовательское соглашение, а также как можно дольше оставайтесь на раздаче! Для того, чтобы скачать сам торрент-файл (который видит больше источников), а также для того, чтобы поблагодарить релизера, вам необходимо зарегистрироваться. Если регистрироваться лень - вы можете также попробовать скачать релиз по нашим партнерским ссылкам ниже.

[underverse.su].t21598.torrent
Трекер: Зарегистрирован   [ 26.11.2012 11:15 ]  

Статус: проверено (by garry at 26.11.2012 13:23)
Поблагодарили: 1 человек
Тип торрента: публичный - доступные источники с открытых трекеров: 
Размер: 4,1 GB (занимает 0,94 DVDR, для записи нужно 1 болванка DVDR/RW)
 
 
Похожие темы
Форум Тема Автор Торрент Отв. Посл. сооб.
xUSSR сериалы УГРО. Простые парни 2 / Серии: 1-12 (12) (Рано Кубаева) [2008 г., детектив, криминал, DVDRip] nemos
0 | 0

0 | 489

4

26.11.2012 11:40

xUSSR сериалы УГРО. Простые парни 3 / Серии: 1-16 (16) (Марина Любакова, Анатолий Артамонов) [2010 г., детектив, криминал, SATRip] nemos
0 | 0

0 | 506

7

26.11.2012 12:03

xUSSR сериалы УГРО. Простые парни 4 / Серии: 1-20 (20) (Марина Любакова, Михаил Галин) [2012 г., детектив, криминал, SATRip] nemos
0 | 0

2 | 1143

7

14.12.2012 13:23

xUSSR сериалы УГРО. Простые парни-5 (1-24 серии из 24) (Дмитрий Матов, Юрий Попович) [2013 г., детектив, SatRip] nemos
1 | 0

1 | 1878

7

01.04.2014 15:41



Последний раз редактировалось: nemos (26.11.2012 12:36), всего редактировалось 1 раз

Яндекс.Метрика powered by Sphinx


В Н И М А Н И Е
Сайт не распространяет и не хранит электронные версии произведений, а лишь бесплатно и без коммерческой выгоды (не требуя взамен платы,
SMS и т.д.) предоставляет доступ к создаваемому пользователями каталогу ссылок на торрент-файлы, которые содержат только списки хеш-сумм.
Убедительная просьба с жалобами обращаться напрямую к пользователю, разместившему торрент файл.

Вверх