Loading...
Error

Цвет ночи / Color of Night (Ричард Раш) [1994 г., триллер, драма, мелодрама, детектив, BDRip-AVC] 2xMVO + AVO + Original

Статистика раздачи
Размер:  4,37 GB   |    Зарегистрирован:  4 года   |    Скачан:  7 раз

Полного источника не было: 1 год 1 месяц

Сидов:  0  |  0 KB/s  ]   Личеров:  0  |  0 KB/s  ]

* - сиды/пиры с внешних источников

   
 
Автор Сообщение

garry Пол:Муж

25-Ноя-2012 21:47

Цвет ночи / Color of Night


Год выпуска: 1994
Жанр: триллер, драма, мелодрама, детектив
Страна: США
Режиссер: Ричард Раш
В ролях: Брюс Уиллис, Джейн Марч, Рубен Бладес, Лесли Энн Уоррен, Скотт Бакула, Брэд Дуриф, Лэнс Хенриксен, Кевин Дж. О’Коннор, Эндрю Лоури, Эрик Ла Салль
Сюжет фильма:
Брюс Уиллис в роли нью-йоркского психолога, потерявшего пациентку — она выбросилась в окно прямо во время сеанса. Чтобы прийти в себя, он едет в Лос-Анджелес к своему другу, с которым они вместе учились.

Там он присутствует на групповом сеансе психотерапии, а ночью друга зверски убивают ножом с нанесением множества ножевых ранений. Не без участия полиции герой Уиллиса берется вести дальше эту группу, так как следователь подозревает, что убийцей может быть один из больных…

  • Мировая премьера: 19 августа 1994


Качество видео: BDRip-AVC

Продолжительность: 02:19:18
Формат: MKV
Видео: x264, 1120x606, 3720 kbps
Аудио #1: русский, многоголосый закадровый [профессиональный, Нева-1], AC3 2.0, 192 kbps
Аудио #2: русский, многоголосый закадровый [профессиональный, РенТВ], AC3 2.0, 192 kbps
Аудио #3: русский, одноголосый закадровый [авторский, Живов], AC3 2.0, 192 kbps
Аудио #4: английский, оригинал, AC3 2.0, 192 kbps
Субтитры #1: тип: вшитые отключаемые, русский, формат: SRT
Субтитры #2: тип: вшитые отключаемые, английский, формат: SRT

Код:

General
 Unique ID : 208313325000440399174351876148803674727 (0x9CB7AFE21236393298AFF209EFB82267)
 Complete name : F:\FILMS\___ - R - ___\Color of Night (Director's Cut).mkv
 Format : Matroska
 Format version : Version 2
 File size : 4.37 GiB
 Duration : 2h 19mn
 Overall bit rate : 4 488 Kbps
 Encoded date : UTC 2012-11-22 20:40:08
 Writing application : mkvmerge v5.6.0 ('Kenya Kane') built on May 27 2012 16:44:04
 Writing library : libebml v1.2.3 + libmatroska v1.3.0

Video
 ID : 1
 Format : AVC
 Format/Info : Advanced Video Codec
 Format profile : High@L4.1
 Format settings, CABAC : Yes
 Format settings, ReFrames : 12 frames
 Codec ID : V_MPEG4/ISO/AVC
 Duration : 2h 19mn
 Bit rate : 3 720 Kbps
 Width : 1 120 pixels
 Height : 606 pixels
 Display aspect ratio : 1.85:1
 Frame rate mode : Constant
 Frame rate : 23.976 fps
 Color space : YUV
 Chroma subsampling : 4:2:0
 Bit depth : 8 bits
 Scan type : Progressive
 Bits/(Pixel*Frame) : 0.229
 Stream size : 3.53 GiB (81%)
 Title : AVC 1120x606@23.976 fps ~3720 kBit/s 2-pass High 4.1
 Writing library : x264 core 122 r2184bm 5c85e0a
 Encoding settings : cabac=1 / ref=12 / deblock=1:-2:-2 / analyse=0x3:0x133 / me=umh / subme=10 / psy=1 / psy_rd=1.00:0.05 / mixed_ref=1 / me_range=48 / chroma_me=1 / trellis=2 / 8x8dct=1 / cqm=0 / deadzone=21,11 / fast_pskip=0 / chroma_qp_offset=-3 / threads=6 / sliced_threads=0 / nr=0 / decimate=0 / interlaced=0 / bluray_compat=0 / constrained_intra=0 / bframes=12 / b_pyramid=2 / b_adapt=2 / b_bias=0 / direct=3 / weightb=1 / open_gop=0 / weightp=2 / keyint=250 / keyint_min=23 / scenecut=40 / intra_refresh=0 / rc=2pass / mbtree=0 / bitrate=3720 / ratetol=1.0 / qcomp=0.90 / qpmin=0 / qpmax=69 / qpstep=4 / cplxblur=20.0 / qblur=0.5 / ip_ratio=1.40 / pb_ratio=1.35 / aq=2:0.80
 Language : English
 Default : Yes
 Forced : No

Audio #1
 ID : 2
 Format : AC-3
 Format/Info : Audio Coding 3
 Mode extension : CM (complete main)
 Format settings, Endianness : Big
 Codec ID : A_AC3
 Duration : 2h 19mn
 Bit rate mode : Constant
 Bit rate : 192 Kbps
 Channel(s) : 2 channels
 Channel positions : Front: L R
 Sampling rate : 48.0 KHz
 Bit depth : 16 bits
 Compression mode : Lossy
 Stream size : 191 MiB (4%)
 Title : MVO Нева-1 AC3 192 kBit/s 48 kHz 2.0 DD
 Language : Russian
 Default : Yes
 Forced : No

Audio #2
 ID : 3
 Format : AC-3
 Format/Info : Audio Coding 3
 Mode extension : CM (complete main)
 Format settings, Endianness : Big
 Codec ID : A_AC3
 Duration : 2h 19mn
 Bit rate mode : Constant
 Bit rate : 192 Kbps
 Channel(s) : 2 channels
 Channel positions : Front: L R
 Sampling rate : 48.0 KHz
 Bit depth : 16 bits
 Compression mode : Lossy
 Stream size : 191 MiB (4%)
 Title : MVO РенТВ AC3 192 kBit/s 48 kHz 2.0 DD
 Language : Russian
 Default : No
 Forced : No

Audio #3
 ID : 4
 Format : AC-3
 Format/Info : Audio Coding 3
 Mode extension : CM (complete main)
 Format settings, Endianness : Big
 Codec ID : A_AC3
 Duration : 2h 19mn
 Bit rate mode : Constant
 Bit rate : 192 Kbps
 Channel(s) : 2 channels
 Channel positions : Front: L R
 Sampling rate : 48.0 KHz
 Bit depth : 16 bits
 Compression mode : Lossy
 Stream size : 191 MiB (4%)
 Title : AVO Живов AC3 192 kBit/s 48 kHz 2.0 DD
 Language : Russian
 Default : No
 Forced : No

Audio #4
 ID : 5
 Format : AC-3
 Format/Info : Audio Coding 3
 Mode extension : CM (complete main)
 Format settings, Endianness : Big
 Codec ID : A_AC3
 Duration : 2h 19mn
 Bit rate mode : Constant
 Bit rate : 192 Kbps
 Channel(s) : 2 channels
 Channel positions : Front: L R
 Sampling rate : 48.0 KHz
 Bit depth : 16 bits
 Compression mode : Lossy
 Stream size : 191 MiB (4%)
 Title : English AC3 192 kBit/s 48 kHz 2.0 DD
 Language : English
 Default : No
 Forced : No

Text #1
 ID : 6
 Format : UTF-8
 Codec ID : S_TEXT/UTF8
 Codec ID/Info : UTF-8 Plain Text
 Language : Russian
 Default : No
 Forced : No

Text #2
 ID : 7
 Format : UTF-8
 Codec ID : S_TEXT/UTF8
 Codec ID/Info : UTF-8 Plain Text
 Language : English
 Default : No
 Forced : No
Семпл: http://narod.ru/disk/63946575001.0f48be019a1cd752666c72e96bc1dbcd/Color%20of%20Night%20(Director's%20Cut)%20(1)-002.mkv.html

Релиз группы:

picpicpic
Для увеличения картинки щелкните мышкой по превью

Этот торрент недоступен для скачивания без регистрации, однако доступен по публичной magnet-ссылке (источники с публичных трекеров). Перед использованием ссылки прочтите, пожалуйста Пользовательское соглашение, а также как можно дольше оставайтесь на раздаче! Для того, чтобы скачать сам торрент-файл (который видит больше источников), а также для того, чтобы поблагодарить релизера, вам необходимо зарегистрироваться. Если регистрироваться лень - вы можете также попробовать скачать релиз по нашим партнерским ссылкам ниже.

[underverse.su].t21591.torrent
Трекер: Зарегистрирован   [ 25.11.2012 21:47 ]  

Статус: проверено (by garry at 25.11.2012 21:47)
Поблагодарили: 1 человек
Тип торрента: публичный - доступные источники с открытых трекеров: 
Размер: 4,37 GB (занимает 1 DVDR, для записи нужно 1 болванка DVDR/RW)
 
 

rss 

27-Ноя-2012 13:00

:crazy: в молодости "орешек" не стеснялся *** перед камерой трясти.

сам фильм очень неплох. удивляет низкий рейтинг на имдб.

Яндекс.Метрика powered by Sphinx


В Н И М А Н И Е
Сайт не распространяет и не хранит электронные версии произведений, а лишь бесплатно и без коммерческой выгоды (не требуя взамен платы,
SMS и т.д.) предоставляет доступ к создаваемому пользователями каталогу ссылок на торрент-файлы, которые содержат только списки хеш-сумм.
Убедительная просьба с жалобами обращаться напрямую к пользователю, разместившему торрент файл.

Вверх