Loading...
Error

Кладбище домашних животных / Pet Sematary (Мэри Ламберт) [1989 г., ужасы, фэнтези, триллер, драма, детектив, BDRip-AVC] 2xMVO + 2xDVO + 3xAVO + Original

Статистика раздачи
Размер:  4,83 GB   |    Зарегистрирован:  4 года   |    Скачан:  6 раз

Полного источника не было: 1 год 6 месяцев

Сидов:  0  |  0 KB/s  ]   Личеров:  0  |  0 KB/s  ]

* - сиды/пиры с внешних источников

   
 
Автор Сообщение

garry Пол:Муж

25-Ноя-2012 11:58

Кладбище домашних животных / Pet Sematary


Год выпуска: 1989
Жанр: ужасы, фэнтези, триллер, драма, детектив
Страна: США
Режиссер: Мэри Ламберт
В ролях: Дэйл Мидкифф, Фред Гуинн, Дениз Кросби, Брэд Гринквист, Майкл Ломбард, Мико Хьюз, Блэйз Бердаль, Сьюзан Бломмарт, Мара Кларк, Кави Раз
Сюжет фильма:
Доктор Луис Крид переезжает в маленький городок, где его семью ждет большой дом, а самого Луиса — скромная должность лечащего врача местного колледжа. Новая, просторная обитель четы Кридов расположена на краю густого, величественного леса. А в самом лесу — маленькое и мрачное кладбище, где местные жители хоронят своих домашних животных.

Несчастье приходит и в дом Кридов: кот Черч, домашний любимец, по нелепой случайности попадает под колеса грузовика. Гибель Черча повергает семью доктора в шок, и Луис решается на отчаянный шаг. Он хоронит кота на древнем, заброшенном индейском кладбище, обладающем, по легенде, таинственной воскрешающей силой. И однажды ночью погибший кот возвращается к хозяевам…

  • Мировая премьера: 21 апреля 1989


Качество видео: BDRip-AVC

Продолжительность: 01:38:03
Формат: MKV
Видео: x264, 1024x576, 3672 kbps
Аудио #1: русский, многоголосый закадровый [профессиональный, Киномания], AC3 5.1, 448 kbps
Аудио #2: русский, двухголосый закадровый [профессиональный, R5], AC3 5.1, 448 kbps
Аудио #3: русский, одноголосый закадровый [авторский, Михалёв], AC3 5.1, 448 kbps
Аудио #4: английский, оригинал, AC3 5.1, 448 kbps
Аудио #5: русский, многоголосый закадровый [профессиональный, Премьер Видео Фильм (VHSRip by alenavova)], AC3 2.0, 192 kbps (отдельно)
Аудио #6: русский, двухголосый закадровый [профессиональный, Гланц и Королёва], AC3 5.1, 448 kbps (отдельно)
Аудио #7: русский, одноголосый закадровый [авторский, Горчаков], AC3 5.1, 448 kbps (отдельно)
Аудио #8: русский, одноголосый закадровый [авторский, Дохалов], AC3 2.0, 192 kbps (отдельно)
Субтитры #1: тип: вшитые отключаемые, русский, формат: SRT
Субтитры #2: тип: вшитые отключаемые, английский, формат: SRT

Код:

General
 Unique ID : 180970144837702986111592206572736093048 (0x8825950464F54B8EBCCC4E6890321B78)
 Complete name : C:\Pet Sematary.mkv
 Format : Matroska
 Format version : Version 2
 File size : 3.92 GiB
 Duration : 1h 42mn
 Overall bit rate : 5 457 Kbps
 Encoded date : UTC 2012-11-19 19:02:37
 Writing application : mkvmerge v5.6.0 ('Kenya Kane') built on May 27 2012 16:44:04
 Writing library : libebml v1.2.3 + libmatroska v1.3.0

Video
 ID : 1
 Format : AVC
 Format/Info : Advanced Video Codec
 Format profile : High@L4.1
 Format settings, CABAC : Yes
 Format settings, ReFrames : 14 frames
 Codec ID : V_MPEG4/ISO/AVC
 Duration : 1h 42mn
 Bit rate : 3 672 Kbps
 Width : 1 024 pixels
 Height : 576 pixels
 Display aspect ratio : 16:9
 Frame rate : 23.976 fps
 Color space : YUV
 Chroma subsampling : 4:2:0
 Bit depth : 8 bits
 Scan type : Progressive
 Bits/(Pixel*Frame) : 0.260
 Stream size : 2.55 GiB (65%)
 Title : AVC 1024x576@23.976 fps ~3672 kBit/s 2-pass High 4.1
 Writing library : x264 core 122 r2184bm 5c85e0a
 Encoding settings : cabac=1 / ref=14 / deblock=1:-1:-1 / analyse=0x3:0x133 / me=umh / subme=10 / psy=1 / psy_rd=1.10:0.05 / mixed_ref=1 / me_range=48 / chroma_me=1 / trellis=2 / 8x8dct=1 / cqm=0 / deadzone=21,11 / fast_pskip=0 / chroma_qp_offset=-3 / threads=6 / sliced_threads=0 / nr=0 / decimate=0 / interlaced=0 / bluray_compat=0 / constrained_intra=0 / bframes=12 / b_pyramid=2 / b_adapt=2 / b_bias=0 / direct=3 / weightb=1 / open_gop=0 / weightp=2 / keyint=250 / keyint_min=23 / scenecut=40 / intra_refresh=0 / rc=2pass / mbtree=0 / bitrate=3672 / ratetol=1.0 / qcomp=0.90 / qpmin=0 / qpmax=69 / qpstep=4 / cplxblur=20.0 / qblur=0.5 / ip_ratio=1.40 / pb_ratio=1.35 / aq=2:1.20
 Language : English
 Default : Yes
 Forced : No

Audio #1
 ID : 2
 Format : AC-3
 Format/Info : Audio Coding 3
 Mode extension : CM (complete main)
 Format settings, Endianness : Big
 Codec ID : A_AC3
 Duration : 1h 42mn
 Bit rate mode : Constant
 Bit rate : 448 Kbps
 Channel(s) : 6 channels
 Channel positions : Front: L C R, Side: L R, LFE
 Sampling rate : 48.0 KHz
 Bit depth : 16 bits
 Compression mode : Lossy
 Stream size : 329 MiB (8%)
 Title : MVO Киномания AC3 448 kBit/s 48 kHz 5.1 DD
 Language : Russian
 Default : No
 Forced : No

Audio #2
 ID : 3
 Format : AC-3
 Format/Info : Audio Coding 3
 Mode extension : CM (complete main)
 Format settings, Endianness : Big
 Codec ID : A_AC3
 Duration : 1h 42mn
 Bit rate mode : Constant
 Bit rate : 448 Kbps
 Channel(s) : 6 channels
 Channel positions : Front: L C R, Side: L R, LFE
 Sampling rate : 48.0 KHz
 Bit depth : 16 bits
 Compression mode : Lossy
 Stream size : 329 MiB (8%)
 Title : DVO R5 AC3 448 kBit/s 48 kHz 5.1 DD
 Language : Russian
 Default : Yes
 Forced : No

Audio #3
 ID : 4
 Format : AC-3
 Format/Info : Audio Coding 3
 Mode extension : CM (complete main)
 Format settings, Endianness : Big
 Codec ID : A_AC3
 Duration : 1h 42mn
 Bit rate mode : Constant
 Bit rate : 448 Kbps
 Channel(s) : 6 channels
 Channel positions : Front: L C R, Side: L R, LFE
 Sampling rate : 48.0 KHz
 Bit depth : 16 bits
 Compression mode : Lossy
 Stream size : 329 MiB (8%)
 Title : AVO А.Михалев AC3 448 kBit/s 48 kHz 5.1 DD
 Language : Russian
 Default : No
 Forced : No

Audio #4
 ID : 5
 Format : AC-3
 Format/Info : Audio Coding 3
 Mode extension : CM (complete main)
 Format settings, Endianness : Big
 Codec ID : A_AC3
 Duration : 1h 42mn
 Bit rate mode : Constant
 Bit rate : 448 Kbps
 Channel(s) : 6 channels
 Channel positions : Front: L C R, Side: L R, LFE
 Sampling rate : 48.0 KHz
 Bit depth : 16 bits
 Compression mode : Lossy
 Stream size : 329 MiB (8%)
 Title : English AC3 448 kBit/s 48 kHz 5.1 DD
 Language : English
 Default : No
 Forced : No

Text #1
 ID : 6
 Format : UTF-8
 Codec ID : S_TEXT/UTF8
 Codec ID/Info : UTF-8 Plain Text
 Language : Russian
 Default : No
 Forced : No

Text #2
 ID : 7
 Format : UTF-8
 Codec ID : S_TEXT/UTF8
 Codec ID/Info : UTF-8 Plain Text
 Language : English
 Default : No
 Forced : No
Семпл: http://narod.ru/disk/63798251001.df7e3d8d1b7196aa7dd8eec93e8c97c8/Pet%20Sematary%20(1)-002.mkv.html

Релиз группы:

picpicpic
Для увеличения картинки щелкните мышкой по превью

Этот торрент недоступен для скачивания без регистрации, однако доступен по публичной magnet-ссылке (источники с публичных трекеров). Перед использованием ссылки прочтите, пожалуйста Пользовательское соглашение, а также как можно дольше оставайтесь на раздаче! Для того, чтобы скачать сам торрент-файл (который видит больше источников), а также для того, чтобы поблагодарить релизера, вам необходимо зарегистрироваться. Если регистрироваться лень - вы можете также попробовать скачать релиз по нашим партнерским ссылкам ниже.

[underverse.su].t21575.torrent
Трекер: Зарегистрирован   [ 25.11.2012 11:58 ]  

Статус: проверено (by garry at 25.11.2012 14:18)
Поблагодарили: 1 человек
Тип торрента: публичный - доступные источники с открытых трекеров: 
Размер: 4,83 GB (занимает 1,1 DVDR, для записи нужно 2 болванки DVDR/RW)
 
 
Похожие темы
Форум Тема Автор Торрент Отв. Посл. сооб.
Зарубежное кино [DVD / HDDVD / BD / Remux] Кладбище домашних животных / Pet Sematary (Мэри Ламберт / Mary Lambert) [1989, США, ужасы, BDRip 1080p] 2x MVO + 3x DVO (R5, Премьер Видео Фильм, Гланц) + 4x AVO (Сербин, Михалев, Горчаков, Дохалов)... uzi2009
4 | 0

0 | 749

3

13.08.2014 10:10

Grizli Пол:Муж

01-Дек-2012 08:36

По сути, фильм достаточно придурковатый. Но в кинотеатре к нему отношение немного меняется в лучшую сторону.

garry Пол:Муж

01-Дек-2012 08:51

Grizli
:shock: это как? фильм 1989 года и врядли он шел в СССР в кинотеатрах
да и придурковатым я бы его не назвал. неплохой ужастик

Grizli Пол:Муж

01-Дек-2012 12:33

Я год назад его пересматривал на специальном показе от журнала Total DVD. Я его в сравнение с книгой немного недолюбливаю. Это же так естественно. :) Лучший момент тут для меня - заглавная песня Ramones. Ну и ещё адский карапуз Мико Хьюз.

garry Пол:Муж

01-Дек-2012 12:50

ясно

Яндекс.Метрика powered by Sphinx


В Н И М А Н И Е
Сайт не распространяет и не хранит электронные версии произведений, а лишь бесплатно и без коммерческой выгоды (не требуя взамен платы,
SMS и т.д.) предоставляет доступ к создаваемому пользователями каталогу ссылок на торрент-файлы, которые содержат только списки хеш-сумм.
Убедительная просьба с жалобами обращаться напрямую к пользователю, разместившему торрент файл.

Вверх