Loading...
Error

Страсти по Чапаю / Серии: 1-12 (12) (Сергей Щербин) [2012, драма, история, DVDRip]

Статистика раздачи
Размер:  8,75 GB   |    Зарегистрирован:  4 года   |    Скачан:  19 раз

Полного источника не было: 2 года

Сидов:  0  |  0 KB/s  ]   Личеров:  0  |  0 KB/s  ]

* - сиды/пиры с внешних источников

   
 
Автор Сообщение

nemos Пол:Муж

24-Ноя-2012 18:24

Страсти по Чапаю


Год выпуска: 2012
Жанр: драма, история
Страна: Россия
Режиссер: Сергей Щербин
В ролях: Сергей Стрельников, Юлия Галкина, Евгения Лютая, Максим Дрозд, Федор Леонов, Софья Хилькова, Дмитрий Щербина, Александр Соколовский, Карина Андоленко, Кирилл Полухин
Сюжет фильма:
Сериал о малоизвестных деталях биографии легендарного комдива Василия Чапаева — первая любовь в 18 лет и побег из родного села, женитьба и семейная жизнь, Первая мировая война, страстные романы с другими женщинами (дочерью белогвардейского офицера и женой красного коммисара), смертельная вражда, сломанные судьбы и неотвратимая гибель на реке Урал.


Качество видео: DVDRip

Продолжительность: 00:52:29 серия
Формат: AVI
Видео: XviD, 720x400, 1 812 kbps
Аудио: русский, AC3 2.0, 192 kbps

Код:

G:\СКАЧКИ\С underverse\Strasti.po.Chapayu.2012.DVDRip\Strasti.po.Chapayu.12.2012.DVDRip.avi
   General
      Complete name : G:\СКАЧКИ\С underverse\Strasti.po.Chapayu.2012.DVDRip\Strasti.po.Chapayu.12.2012.DVDRip.avi
      Format : AVI
      Format/Info : Audio Video Interleave
      File size : 756 MiB
      Duration : 52mn 29s
      Overall bit rate : 2 013 Kbps
      Writing application : VirtualDubMod 1.5.10.3 | www.virtualdub-fr.org || (build 2550/release)
      Writing library : VirtualDubMod build 2550/release
   Video #0
      ID : 0
      Format : MPEG-4 Visual
      Format profile : Advanced Simple@L5
      Format settings, BVOP : 1
      Format settings, QPel : No
      Format settings, GMC : No warppoints
      Format settings, Matrix : Custom
      Codec ID : XVID
      Codec ID/Hint : XviD
      Duration : 52mn 29s
      Bit rate : 1 812 Kbps
      Width : 720 pixels
      Height : 400 pixels
      Display aspect ratio : 16:9
      Frame rate : 25.000 fps
      Color space : YUV
      Chroma subsampling : 4:2:0
      Bit depth : 8 bits
      Scan type : Progressive
      Compression mode : Lossy
      Bits/(Pixel*Frame) : 0.252
      Stream size : 680 MiB (90%)
      Writing library : XviD 65
   Audio #1
      ID : 1
      Format : AC-3
      Format/Info : Audio Coding 3
      Mode extension : CM (complete main)
      Format settings, Endianness : Big
      Codec ID : 2000
      Duration : 52mn 29s
      Bit rate mode : Constant
      Bit rate : 192 Kbps
      Channel(s) : 2 channels
      Channel positions : Front: L R
      Sampling rate : 48.0 KHz
      Bit depth : 16 bits
      Compression mode : Lossy
      Stream size : 72.1 MiB (10%)
      Alignment : Split accross interleaves
      Interleave, duration : 40 ms (1.00 video frame)
      Interleave, preload duration : 500 ms
Семпл: http://multi-up.com/794431

picpicpicpicpicpicpicpicpicpicpicpicpicpicpicpic
Для увеличения картинки щелкните мышкой по превью
Сериал который был выложен и зарегистрирован более двух месяцев назад буду раздавать с 23.00ч до 06.00ч утра ( вина в этом немоя, а пользователей которые неподдерживают раздачу)

Этот торрент недоступен для скачивания без регистрации, однако доступен по публичной magnet-ссылке (источники с публичных трекеров). Перед использованием ссылки прочтите, пожалуйста Пользовательское соглашение, а также как можно дольше оставайтесь на раздаче! Для того, чтобы скачать сам торрент-файл (который видит больше источников), а также для того, чтобы поблагодарить релизера, вам необходимо зарегистрироваться. Если регистрироваться лень - вы можете также попробовать скачать релиз по нашим партнерским ссылкам ниже.

[underverse.su].t21557.torrent
Трекер: Зарегистрирован   [ 24.11.2012 18:24 ]  

Статус: проверено (by garry at 24.11.2012 19:20)
Поблагодарили: 3 человека
Тип торрента: публичный - доступные источники с открытых трекеров: 
Размер: 8,75 GB (занимает 2 DVDR, для записи нужно 2 болванки DVDR/RW)
 
 
Похожие темы
Форум Тема Автор Торрент Отв. Посл. сооб.
Личности Страсти по Солоницыну (Наталья Гугуева) [2006 г., документальный, биография, кинематограф, TVRip] ARI71
3 | 4

0 | 204

0

20.11.2016 11:21



Последний раз редактировалось: nemos (06.11.2014 09:40), всего редактировалось 2 раз(а)

VIKTOROVxxx Пол:Муж

25-Ноя-2012 12:01

Раздающий??? Ау!!!! Где скорость???

nemos Пол:Муж

13-Окт-2013 17:43

VIKTOROVxxx писал(а):

Раздающий??? Ау!!!! Где скорость???
Спросите у скачавших, которые скачивают и уходят с раздачи.

Яндекс.Метрика powered by Sphinx


В Н И М А Н И Е
Сайт не распространяет и не хранит электронные версии произведений, а лишь бесплатно и без коммерческой выгоды (не требуя взамен платы,
SMS и т.д.) предоставляет доступ к создаваемому пользователями каталогу ссылок на торрент-файлы, которые содержат только списки хеш-сумм.
Убедительная просьба с жалобами обращаться напрямую к пользователю, разместившему торрент файл.

Вверх