Loading...
Error

Патруль / End of Watch (Дэвид Эйр) [2012 г., триллер, драма, криминал, BDRip] Dub + Original HQ Underverse

Статистика раздачи
Размер:  2,17 GB   |    Зарегистрирован:  4 года   |    Скачан:  47 раз
Сидов:  2  |  0 KB/s  ]   Личеров:  0  |  0 KB/s  ]

* - сиды/пиры с внешних источников

   
 
Автор Сообщение

HQ Underverse 

24-Ноя-2012 10:05

Патруль / End of Watch


Год выпуска: 2012
Жанр: триллер, драма, криминал
Страна: США
Режиссер: Дэвид Эйр
В ролях: Джейк Джилленхол, Майкл Пенья, Анна Кендрик, Натали Мартинез, Америка Феррера, Фрэнк Грилло, Дэвид Харбор, Кле Шахид Слоун, Джейм Фицсаймонс, Коуди Хорн
Сюжет фильма:
Они были лучшими копами Лос-Анджелеса. Бесстрашные и везучие напарники, они стали друг другу как братья. Но однажды парни залезли в самое логово преступного мира города, по-глупому подставились и сами стали мишенью… Кто успеет первым разрядить обойму?

  • Мировая премьера: 8 сентября 2012
  • Российская премьера: 20 сентября 2012, «Парадиз»


Качество видео: BDRip [Патруль / End of Watch (2012) Blu-ray 1080p AVC DTS-HD 5.1 / HD Club]

Продолжительность: 01:48:32
Формат: avi
Видео: XviD, 720x400, 1952 kbps
Аудио #1: русский, дублированный [лицензия], AC3 5.1, 448 kbps
Аудио #2: английский, оригинал, AC3 5.1, 448 kbps

Код:

General
Complete name                    : D:\Video\Movies\Releases\End.of.Watch.2012.BDRip.XviD.AC3.Rus.D.Eng.O.HQ.Underverse.avi
Format                           : AVI
Format/Info                      : Audio Video Interleave
Format profile                   : OpenDML
File size                        : 2.17 GiB
Duration                         : 1h 48mn
Overall bit rate                 : 2 867 Kbps
Writing application              : VirtualDubMod 1.5.10.2 (build 2540/release)
Writing library                  : VirtualDubMod build 2540/release

Video
ID                               : 0
Format                           : MPEG-4 Visual
Format profile                   : Streaming Video@L1
Format settings, BVOP            : Yes
Format settings, QPel            : No
Format settings, GMC             : No warppoints
Format settings, Matrix          : Custom
Muxing mode                      : Packed bitstream
Codec ID                         : XVID
Codec ID/Hint                    : XviD
Duration                         : 1h 48mn
Bit rate                         : 1 953 Kbps
Width                            : 720 pixels
Height                           : 400 pixels
Display aspect ratio             : 16/9
Frame rate                       : 24.000 fps
Resolution                       : 24 bits
Colorimetry                      : 4:2:0
Scan type                        : Progressive
Bits/(Pixel*Frame)               : 0.283
Stream size                      : 1.48 GiB (68%)
Writing library                  : XviD 64

Audio #1
ID                               : 1
Format                           : AC-3
Format/Info                      : Audio Coding 3
Codec ID                         : 2000
Duration                         : 1h 48mn
Bit rate mode                    : Constant
Bit rate                         : 448 Kbps
Channel(s)                       : 6 channels
Channel positions                : Front: L C R, Surround: L R, LFE
Sampling rate                    : 48.0 KHz
Stream size                      : 348 MiB (16%)
Alignment                        : Split accross interleaves
Interleave, duration             : 42 ms (1.00 video frame)
Interleave, preload duration     : 500 ms
Title                            : End.of.Watch.2012.AC3.Rus.D.448.kbps.HQ.Underverse

Audio #2
ID                               : 2
Format                           : AC-3
Format/Info                      : Audio Coding 3
Codec ID                         : 2000
Duration                         : 1h 48mn
Bit rate mode                    : Constant
Bit rate                         : 448 Kbps
Channel(s)                       : 6 channels
Channel positions                : Front: L C R, Surround: L R, LFE
Sampling rate                    : 48.0 KHz
Stream size                      : 348 MiB (16%)
Alignment                        : Split accross interleaves
Interleave, duration             : 42 ms (1.00 video frame)
Interleave, preload duration     : 500 ms
Title                            : End.of.Watch.2012.AC3.Eng.O.448.kbps.HQ.Underverse

Семпл: http://multi-up.com/794208

Релиз группы:

picpicpic
Для увеличения картинки щелкните мышкой по превью

Этот торрент недоступен для скачивания без регистрации, однако доступен по публичной magnet-ссылке (источники с публичных трекеров). Перед использованием ссылки прочтите, пожалуйста Пользовательское соглашение, а также как можно дольше оставайтесь на раздаче! Для того, чтобы скачать сам торрент-файл (который видит больше источников), а также для того, чтобы поблагодарить релизера, вам необходимо зарегистрироваться. Если регистрироваться лень - вы можете также попробовать скачать релиз по нашим партнерским ссылкам ниже.

[underverse.su].t21542.torrent
Трекер: Зарегистрирован   [ 24.11.2012 10:05 ]  

Статус: проверено (by Паукан at 24.11.2012 10:09)
Поблагодарили: 5 человек
Тип торрента: публичный - доступные источники с открытых трекеров: 
Размер: 2,17 GB (занимает 1/2 DVDR, для записи нужно 1 болванка DVDR/RW)
 
 
Похожие темы
Форум Тема Автор Торрент Отв. Посл. сооб.
Зарубежное кино [DVDRip, Low-Res HDRip, и т.д.] Патруль / End of Watch (Дэвид Эйр) [2012 г., триллер, драма, криминал, HDRip-AVC] Dub Garnett
64 | 1

0 | 417

17

28.11.2012 17:28

Зарубежное кино [DVDRip, Low-Res HDRip, и т.д.] Патруль / End of Watch (Дэвид Эйр / David Ayer) [2012 г., драма, криминал, боевик, триллер, HDRip] [US Transfer] Dub 90ytr90
24 | 1

0 | 409

13

29.12.2013 12:34

Зарубежное кино [HDDVDRip / BDRip / WEB-DL / HDTV 1080/720р] Патруль / End of Watch ( Дэвид Эйр ) [2012 г., триллер, драма, криминал, BDRip 720p] Dub + Original Чертёнок
0 | 0

0 | 1232

11

20.01.2013 16:28

Зарубежное кино [HDDVDRip / BDRip / WEB-DL / HDTV 1080/720р] Патруль / End of Watch (Дэвид Эйр / David Ayer) [2012 г., драма, криминал, боевик, триллер, BDRip 720p] [US Transfer] Dub + Sub (Rus, Eng) 90ytr90
30 | 0

0 | 299

7

29.12.2013 12:22


Яндекс.Метрика powered by Sphinx


В Н И М А Н И Е
Сайт не распространяет и не хранит электронные версии произведений, а лишь бесплатно и без коммерческой выгоды (не требуя взамен платы,
SMS и т.д.) предоставляет доступ к создаваемому пользователями каталогу ссылок на торрент-файлы, которые содержат только списки хеш-сумм.
Убедительная просьба с жалобами обращаться напрямую к пользователю, разместившему торрент файл.

Вверх