Loading...
Error

Красная волчица / Den roda vargen (Агнета Фагерстрем-Олссон) [2012 г., драма, криминал, HDRip] VO [den904]

Статистика раздачи
Размер:  1,37 GB   |    Зарегистрирован:  4 года   |    Скачан:  9 раз

Полного источника не было: 1 год 11 месяцев

Сидов:  0  |  0 KB/s  ]   Личеров:  0  |  0 KB/s  ]

* - сиды/пиры с внешних источников

   
 
Автор Сообщение

DarkAngel Пол:Муж

24-Ноя-2012 08:15

Красная волчица / Den roda vargen


Год выпуска: 2012
Жанр: драма, криминал
Страна: Швеция
Режиссер: Агнета Фагерстрем-Олссон
В ролях: Малин Крепин, Бьёрн Чьелльман, Лейф Андре, Кайса Эрнст, Эрик Йоханссон, Феликс Энгстрем, Ричард Ульфзэтер, Эльвира Францен, Эдвин Ридинг, Ханна Альстрём
Сюжет фильма:
Темной зимней ночью в Лулео был убит журналист. Его коллега Анника Бенгтзон обнаруживает связь между убийством и нападением на авиабазу F21 в конце 1960-х гг. Многочисленные смертельно опасные тайны втягивают журналистку в пучину насилия и терроризма, выводят на дорожку прямо в кабинет премьер-министра… Аннике предстоит разоблачить злоупотребление властью, но на что она готова пойти, если ее собственная жизнь начинает рушиться? Как бросить вызов политическим деятелям и нравственности ее главного редактора — и сохранить себя как человека, женщину, журналистку?

  • Мировая премьера: 24 июня 2012

Качество видео: HDRip

Продолжительность: 01:28:40
Формат: AVI
Видео: XviD, 720x400 (1.80:1), 1751 kbps
Аудио: русский, одноголосый закадровый [любительский (den904)], AC3 5.1, 448 kbps

Код:

Общее
Полное имя : F:Krasnaya.Volchica.2012.HDRip.Rus.L1.1400.avi
Формат : AVI
Формат/Информация : Audio Video Interleave
Размер файла : 1,37 Гбайт
Продолжительность : 1 ч. 28 м.
Общий поток : 2209 Кбит/сек
Программа кодирования : VirtualDubMod 1.5.10.2 (build 2540/release)
Библиотека кодирования : VirtualDubMod build 2540/release

Видео
Идентификатор : 0
Формат : MPEG-4 Visual
Профиль формата : Advanced Simple@L5
Параметр BVOP формата : 2
Параметр QPel формата : Нет
Параметр GMC формата : Без точки перехода
Параметр матрицы формата : Default (MPEG)
Идентификатор кодека : XVID
Идентификатор кодека/Подсказка : XviD
Продолжительность : 1 ч. 28 м.
Битрейт : 1752 Кбит/сек
Ширина : 720 пикс.
Высота : 400 пикс.
Соотношение сторон : 16:9
Частота кадров : 23,976 кадр/сек
Цветовое пространство : YUV
Подвыборка цветности : 4:2:0
Битовая глубина : 8 бит
Тип развёртки : Прогрессивная
Метод сжатия : С потерями
Бит/(Пиксели*Кадры) : 0.254
Размер потока : 1,08 Гбайт (79%)
Библиотека кодирования : XviD 1.2.1 (UTC 2008-12-04)

Аудио
Идентификатор : 1
Формат : AC-3
Формат/Информация : Audio Coding 3
Расширение режима : CM (complete main)
Идентификатор кодека : 2000
Продолжительность : 1 ч. 28 м.
Вид битрейта : Постоянный
Битрейт : 448 Кбит/сек
Каналы : 6 каналов
Расположение каналов : Front: L C R, Side: L R, LFE
Частота : 48,0 КГц
Битовая глубина : 16 бит
Метод сжатия : С потерями
Размер потока : 284 Мбайт (20%)
Выравнивание : Соединение по промежуткам
Продолжительность промежутка : 42 мс. (1,00 видеокадр)
Время предзагрузки промежутка : 512 ms
Семпл: http://multi-up.com/793879

picpicpic
Для увеличения картинки щелкните мышкой по превью

Этот торрент недоступен для скачивания без регистрации, однако доступен по публичной magnet-ссылке (источники с публичных трекеров). Перед использованием ссылки прочтите, пожалуйста Пользовательское соглашение, а также как можно дольше оставайтесь на раздаче! Для того, чтобы скачать сам торрент-файл (который видит больше источников), а также для того, чтобы поблагодарить релизера, вам необходимо зарегистрироваться. Если регистрироваться лень - вы можете также попробовать скачать релиз по нашим партнерским ссылкам ниже.

[underverse.su].t21535.torrent
Трекер: Зарегистрирован   [ 24.11.2012 08:15 ]  

Статус: проверено (by garry at 24.11.2012 08:30)
Поблагодарили: пока никто не поблагодарил...
Тип торрента: публичный - доступные источники с открытых трекеров: 
Размер: 1,37 GB (занимает 0,31 DVDR, для записи нужно 1 болванка DVDR/RW)
 
 

Яндекс.Метрика powered by Sphinx


В Н И М А Н И Е
Сайт не распространяет и не хранит электронные версии произведений, а лишь бесплатно и без коммерческой выгоды (не требуя взамен платы,
SMS и т.д.) предоставляет доступ к создаваемому пользователями каталогу ссылок на торрент-файлы, которые содержат только списки хеш-сумм.
Убедительная просьба с жалобами обращаться напрямую к пользователю, разместившему торрент файл.

Вверх