Loading...
Error

Семнадцать мгновений весны / Серии: 1-12 (Татьяна Лиознова) [1973 г., драма, приключения, военный, история, DVDRip]

Статистика раздачи
Размер:  8,74 GB   |    Зарегистрирован:  4 года   |    Скачан:  20 раз

Полного источника не было: 3 месяца 17 дней

Сидов:  0  |  0 KB/s  ]   Личеров:  0  |  0 KB/s  ]

* - сиды/пиры с внешних источников

   
 
Автор Сообщение

garry Пол:Муж

22-Ноя-2012 15:55

Семнадцать мгновений весны / Серии: 1-12


Год выпуска: 1973
Жанр: драма, приключения, военный, история
Страна: СССР
Режиссер: Татьяна Лиознова
В ролях: Вячеслав Тихонов, Леонид Броневой, Евгений Евстигнеев, Михаил Жарковский, Ростислав Плятт, Екатерина Градова, Олег Табаков, Николай Прокопович, Юрий Визбор, Светлана Светличная
Сюжет фильма:
Время и место действия — Германия, канун Победы в Великой отечественной войне. Советский разведчик полковник Исаев, он же — штандартенфюрер СС Штирлиц, исполняет последние задания Центра, диктуемые ходом военных действий и политическими интригами верхов противоборствующих сторон.

  • Мировая премьера: 13 декабря 1973


Качество видео: DVDRip

Продолжительность: 01:08:42 + 01:09:02 + 01:06:10 + 01:15:20 + 01:05:32 + 01:12:16 + 01:10:26 + 01:05:13 + 01:18:48 + 01:07:49 + 01:04:49 + 01:06:14
Формат: AVI
Видео: XviD, 640x480, 1375 kbps
Аудио: русский, оригинал, MP3 1.0 C, 112 kbps

Код:

General
Complete name                            : D:\Downloads\Torrents\Semnadcat`_mgnoveniy_vesni_DVDRip_2xDVD\Semnadcat`_mgnoveniy_vesni2\07_Semnadcat`_mgnoveniy_vesni_DVDRip.avi
Format                                   : AVI
Format/Info                              : Audio Video Interleave
File size                                : 762 MiB
Duration                                 : 1h 10mn
Overall bit rate                         : 1 512 Kbps
Writing application                      : VirtualDubModRus 1.5.10.2 (build 2542/release)
Writing library                          : VirtualDubMod build 2542/release

Video
ID                                       : 0
Format                                   : MPEG-4 Visual
Format profile                           : Advanced Simple@L5
Format settings, BVOP                    : 2
Format settings, QPel                    : No
Format settings, GMC                     : No warppoints
Format settings, Matrix                  : Default (MPEG)
Muxing mode                              : Packed bitstream
Codec ID                                 : XVID
Codec ID/Hint                            : XviD
Duration                                 : 1h 10mn
Bit rate                                 : 1 391 Kbps
Width                                    : 640 pixels
Height                                   : 480 pixels
Display aspect ratio                     : 4:3
Frame rate                               : 25.000 fps
Color space                              : YUV
Chroma subsampling                       : 4:2:0
Bit depth                                : 8 bits
Scan type                                : Progressive
Compression mode                         : Lossy
Bits/(Pixel*Frame)                       : 0.181
Stream size                              : 701 MiB (92%)
Writing library                          : XviD 1.2.1 (UTC 2008-12-04)

Audio
ID                                       : 1
Format                                   : AC-3
Format/Info                              : Audio Coding 3
Mode extension                           : CM (complete main)
Format settings, Endianness              : Big
Codec ID                                 : 2000
Duration                                 : 1h 10mn
Bit rate mode                            : Constant
Bit rate                                 : 112 Kbps
Channel(s)                               : 1 channel
Channel positions                        : Front: C
Sampling rate                            : 48.0 KHz
Bit depth                                : 16 bits
Compression mode                         : Lossy
Stream size                              : 56.4 MiB (7%)
Alignment                                : Aligned on interleaves
Interleave, duration                     : 40 ms (1.00 video frame)
Interleave, preload duration             : 512 ms
Релиз группы:

picpicpic
Для увеличения картинки щелкните мышкой по превью

Этот торрент недоступен для скачивания без регистрации, однако доступен по публичной magnet-ссылке (источники с публичных трекеров). Перед использованием ссылки прочтите, пожалуйста Пользовательское соглашение, а также как можно дольше оставайтесь на раздаче! Для того, чтобы скачать сам торрент-файл (который видит больше источников), а также для того, чтобы поблагодарить релизера, вам необходимо зарегистрироваться. Если регистрироваться лень - вы можете также попробовать скачать релиз по нашим партнерским ссылкам ниже.

[underverse.su].t21505.torrent
Трекер: Зарегистрирован   [ 22.11.2012 15:55 ]  

Статус: проверено (by garry at 22.11.2012 15:55)
Поблагодарили: 2 человека
Тип торрента: публичный - доступные источники с открытых трекеров: 
Размер: 8,74 GB (занимает 2 DVDR, для записи нужно 2 болванки DVDR/RW)
 
 
Похожие темы
Форум Тема Автор Торрент Отв. Посл. сооб.
xUSSR сериалы Семнадцать мгновений весны (12 серий) (Татьяна Лиознова) [1973 (2009 Ремастеринг) г., военный, детектив, исторический, приключения, DVDRip] [Цветная версия] kesheva
2 | 0

3 | 1868

17

22.01.2014 12:56

% Наше кино [DVD / HDDVD / BD / Remux] Семнадцать мгновений весны (Татьяна Лиознова) [1973 г., военная драма, 6хDVD9 + DVD5] uzi2009
25 | 9

2 | 1774

5

20.05.2014 17:55

Архив Семнадцать мгновений весны (1-12 серии) (Татьяна Лиознова) Цветной [1973 г., драма, приключения, военный, история, SatRip] LAMA
0 | 0

4 | 1285

0

16.06.2011 08:09

rss 

27-Ноя-2012 12:55

рад, что в оригинале выпустили. не хотелось бы на зеленого бормана смотреть.

Яндекс.Метрика powered by Sphinx


В Н И М А Н И Е
Сайт не распространяет и не хранит электронные версии произведений, а лишь бесплатно и без коммерческой выгоды (не требуя взамен платы,
SMS и т.д.) предоставляет доступ к создаваемому пользователями каталогу ссылок на торрент-файлы, которые содержат только списки хеш-сумм.
Убедительная просьба с жалобами обращаться напрямую к пользователю, разместившему торрент файл.

Вверх