Loading...
Error

Узник / Последний патрон / One in the Chamber / Last Bullet (Уильям Кауфман) [2012 г., боевик, триллер, криминал, BDRip-AVC] DVO + Original

Статистика раздачи
Размер:  2,17 GB   |    Зарегистрирован:  4 года   |    Скачан:  19 раз

Полного источника не было: 7 месяцев

Сидов:  0  |  0 KB/s  ]   Личеров:  0  |  0 KB/s  ]

* - сиды/пиры с внешних источников

   
 
Автор Сообщение

DarkAngel Пол:Муж

21-Ноя-2012 19:05

Узник / Последний патрон / One in the Chamber / Last Bullet


Год выпуска: 2012
Жанр: боевик, триллер, криминал
Страна: США
Режиссер: Уильям Кауфман
В ролях: Кьюба Гудинг мл., Дольф Лундгрен, Клаудия Бассолс, Эндрю Бикнелл, Билли Мюррэй, Лео Грегори, Луис Мэндилор, Lia Sinchevici, Аарон МакФерсон, Элин Пэнк
Сюжет фильма:
Бизнес наемного убийцы Рея идет очень хорошо. Соперничающие группировки делят сферы влияния в городе, а Рей помогает им расправляться с конкурентами. Но однажды все пошло не так — Рей не выполнил задания, чем вызвал гнев одного из главарей мафии. Теперь за ним самим охотится профессиональный убийца.

  • Мировая премьера: 12 июля 2012


Качество видео: BDRip-AVC

Продолжительность: 01:31:06
Формат: MKV
Видео: MPEG-4 AVC, 1152x648, 2587 kbps
Аудио #1: русский, двухголосый закадровый [любительский], AC3 5.1, 384 kbps
Аудио #2: английский, оригинал, AC3 5.1, 448 kbps

Код:

Общее
Уникальный идентификатор         : 236162288120789669185606618639100078710 (0xB1AB33C62D2F68D9B591E5E4E614EA76)
Полное имя                       : C:\Users\Deerhoof\One in the Chamber.2012.BDRip-AVC_[*другой трекер*]_by_Deerhoof.mkv
Формат                           : Matroska
Версия формата                   : Version 2
Размер файла                     : 2,17 Гбайт
Продолжительность                : 1 ч. 31 м.
Общий поток                      : 3417 Кбит/сек
Название фильма                  : One in the Chamber.2012_Deerhoof
Дата кодирования                 : UTC 2012-08-30 13:42:18
Программа кодирования            : mkvmerge v5.6.0 ('Kenya Kane') built on May 27 2012 16:44:04
Библиотека кодирования           : libebml v1.2.3 + libmatroska v1.3.0

Видео
Идентификатор                    : 1
Формат                           : AVC
Формат/Информация                : Advanced Video Codec
Профиль формата                  : High@L4.1
Параметр CABAC формата           : Да
Параметр ReFrames формата        : 11 кадров
Идентификатор кодека             : V_MPEG4/ISO/AVC
Продолжительность                : 1 ч. 31 м.
Битрейт                          : 2587 Кбит/сек
Ширина                           : 1152 пикселя
Высота                           : 648 пикселей
Соотношение сторон               : 16:9
Частота кадров                   : 23,976 кадра/сек
Цветовое пространство            : YUV
Субдискретизация насыщенности    : 4:2:0
Битовая глубина                  : 8 бит
Тип развёртки                    : Прогрессивная
Бит/(Пиксели*Кадры)              : 0.145
Размер потока                    : 1,60 Гбайт (74%)
Библиотека кодирования           : x264 core 125 r2200 999b753
Настройки программы              : cabac=1 / ref=11 / deblock=1:-2:-1 / analyse=0x3:0x133 / me=umh / subme=11 / psy=1 / psy_rd=1.00:0.10 / mixed_ref=1 / me_range=48 / chroma_me=1 / trellis=2 / 8x8dct=1 / cqm=0 / deadzone=21,11 / fast_pskip=0 / chroma_qp_offset=-3 / threads=6 / lookahead_threads=1 / sliced_threads=0 / nr=0 / decimate=1 / interlaced=0 / bluray_compat=0 / constrained_intra=0 / bframes=11 / b_pyramid=2 / b_adapt=2 / b_bias=0 / direct=3 / weightb=0 / open_gop=0 / weightp=2 / keyint=240 / keyint_min=23 / scenecut=40 / intra_refresh=0 / rc_lookahead=80 / rc=2pass / mbtree=1 / bitrate=2587 / ratetol=1.0 / qcomp=0.60 / qpmin=0 / qpmax=69 / qpstep=4 / cplxblur=20.0 / qblur=0.5 / ip_ratio=1.40 / aq=2:0.90
Основные цвета                   : BT.709-5, BT.1361, IEC 61966-2-4, SMPTE RP177
Характеристики трансфера         : BT.709-5, BT.1361
Коэффициенты матрицы             : BT.709-5, BT.1361, IEC 61966-2-4 709, SMPTE RP177

Аудио #1
Идентификатор                    : 2
Формат                           : AC-3
Формат/Информация                : Audio Coding 3
Расширение режима                : CM (complete main)
Идентификатор кодека             : A_AC3
Продолжительность                : 1 ч. 31 м.
Вид битрейта                     : Постоянный
Битрейт                          : 384 Кбит/сек
Каналы                           : 6 каналов
Расположение каналов             : Front: L C R, Side: L R, LFE
Частота                          : 48,0 КГц
Битовая глубина                  : 16 бит
Метод сжатия                     : С потерями
Размер потока                    : 250 Мбайт (11%)
Заголовок                        : Любительский (двухголосый закадровый)
Язык                             : Russian

Аудио #2
Идентификатор                    : 3
Формат                           : AC-3
Формат/Информация                : Audio Coding 3
Расширение режима                : CM (complete main)
Идентификатор кодека             : A_AC3
Продолжительность                : 1 ч. 31 м.
Вид битрейта                     : Постоянный
Битрейт                          : 448 Кбит/сек
Каналы                           : 6 каналов
Расположение каналов             : Front: L C R, Side: L R, LFE
Частота                          : 48,0 КГц
Битовая глубина                  : 16 бит
Метод сжатия                     : С потерями
Размер потока                    : 292 Мбайт (13%)
Язык                             : English

Текст
Идентификатор                    : 4
Формат                           : UTF-8
Идентификатор кодека             : S_TEXT/UTF8
Идентификатор кодека/Информация  : UTF-8 Plain Text
Язык                             : English

Меню
00:00:00.000                     : :Chapter 01
00:06:46.948                     : :Chapter 02
00:13:26.180                     : :Chapter 03
00:21:10.352                     : :Chapter 04
00:29:26.139                     : :Chapter 05
00:36:51.876                     : :Chapter 06
00:44:49.478                     : :Chapter 07
00:50:31.528                     : :Chapter 08
00:57:25.859                     : :Chapter 09
01:04:05.174                     : :Chapter 10
01:15:34.238                     : :Chapter 11
01:25:53.148                     : :Chapter 12
01:31:06.210                     : :Chapter 13
Семпл: http://multi-up.com/753736

picpicpic
Для увеличения картинки щелкните мышкой по превью

Этот торрент недоступен для скачивания без регистрации, однако доступен по публичной magnet-ссылке (источники с публичных трекеров). Перед использованием ссылки прочтите, пожалуйста Пользовательское соглашение, а также как можно дольше оставайтесь на раздаче! Для того, чтобы скачать сам торрент-файл (который видит больше источников), а также для того, чтобы поблагодарить релизера, вам необходимо зарегистрироваться. Если регистрироваться лень - вы можете также попробовать скачать релиз по нашим партнерским ссылкам ниже.

[underverse.su].t21485.torrent
Трекер: Зарегистрирован   [ 21.11.2012 19:05 ]  

Статус: проверено (by техно1 at 21.11.2012 20:22)
Поблагодарили: 1 человек
Тип торрента: публичный - доступные источники с открытых трекеров: 
Размер: 2,17 GB (занимает 1/2 DVDR, для записи нужно 1 болванка DVDR/RW)
 
 

Яндекс.Метрика powered by Sphinx


В Н И М А Н И Е
Сайт не распространяет и не хранит электронные версии произведений, а лишь бесплатно и без коммерческой выгоды (не требуя взамен платы,
SMS и т.д.) предоставляет доступ к создаваемому пользователями каталогу ссылок на торрент-файлы, которые содержат только списки хеш-сумм.
Убедительная просьба с жалобами обращаться напрямую к пользователю, разместившему торрент файл.

Вверх