Loading...
Error

Лепестки надежды / Hope Springs (Марк Херман) [2003 г., мелодрама, комедия, DVDRip-AVC] 2хDVO + Original

Статистика раздачи
Размер:  1,77 GB   |    Зарегистрирован:  4 года   |    Скачан:  5 раз

Полного источника не было: 1 год 11 месяцев

Сидов:  0  |  0 KB/s  ]   Личеров:  0  |  0 KB/s  ]

* - сиды/пиры с внешних источников

   
 
Автор Сообщение

garry Пол:Муж

20-Ноя-2012 08:39

Лепестки надежды / Hope Springs


Год выпуска: 2003
Жанр: мелодрама, комедия
Страна: США , Великобритания
Режиссер: Марк Херман
В ролях: Колин Фёрт, Хэзер Грэм, Минни Драйвер, Мэри Стинберген, Фрэнк Коллисон, Оливер Платт, Мэри Блэк, Кен Крамер, Чэд Фауст, Тони Алькантар
Сюжет фильма:
Любовные катастрофы заставляют потерпевших их совершать странные поступки. Получивший внезапную отставку от невесты Веры британский художник Колин, например, не нашел ничего лучше, чем уехать из Англии в глухой американский городишко и предаться провинциальной тоске.

Однако судьба дает герою шанс быстро покончить с сердечной депрессией, сводя его с местной медсестрой Мэнди, прелестной девушкой с добрым сердцем. И действительно, знакомство с Мэнди более чем благотворно влияет на Колина. В его сердце уже пробиваются ростки новой любви, как вдруг на горизонте объявляется… забытая было ветреная Вера! И она полна решимости вернуть своего парня назад — любой ценой!..

  • Мировая премьера: 14 марта 2003


Качество видео: DVDRip-AVC

Продолжительность: 01:28:23
Формат: MKV
Видео: x264, 702x436@998x436, 2025 kbps
Аудио #1: русский, двухголосый закадровый [профессиональный], AC3 2.0, 192 kbps
Аудио #2: русский, двухголосый закадровый [профессиональный, с VHS], AC3 2.0, 192 kbps
Аудио #3: английский, оригинал, AC3 5.1, 448 kbps (отдельно)
Субтитры #1: тип: вшитые отключаемые, русский, формат: SRT
Субтитры #2: тип: вшитые отключаемые, английский, формат: SRT

Код:

General
 Complete name : E:\...\Hope.Springs.2003.PAL.DVDRip.x264.AC3.Rus-E76.mkv
 Format : Matroska
 Format version : Version 2
 File size : 1.49 GiB
 Duration : 1h 28mn
 Overall bit rate : 2 411 Kbps
 Movie name : Hope.Springs.2003.PAL.DVDRip.x264.AC3.Rus-E76
 Encoded date : UTC 2012-11-17 16:25:45
 Writing application : mkvmerge v5.6.0 ('Kenya Kane') built on May 27 2012 16:44:04
 Writing library : libebml v1.2.3 + libmatroska v1.3.0

Video
 ID : 1
 Format : AVC
 Format/Info : Advanced Video Codec
 Format profile : High@L4.1
 Format settings, CABAC : Yes
 Format settings, ReFrames : 12 frames
 Codec ID : V_MPEG4/ISO/AVC
 Duration : 1h 28mn
 Bit rate : 1 979 Kbps
 Width : 702 pixels
 Height : 436 pixels
 Display aspect ratio : 2.25:1
 Original display aspect ratio : 1.610
 Frame rate mode : Constant
 Frame rate : 25.000 fps
 Color space : YUV
 Chroma subsampling : 4:2:0
 Bit depth : 8 bits
 Scan type : Progressive
 Bits/(Pixel*Frame) : 0.259
 Stream size : 1.22 GiB (82%)
 Title : Encode by Enclave76
 Writing library : x264 core 128 r2216kMod 198a7ea
 Encoding settings : cabac=1 / ref=12 / deblock=1:-3:-3 / analyse=0x3:0x133 / me=umh / subme=11 / psy=1 / fade_compensate=0.00 / psy_rd=1.00:0.00 / mixed_ref=1 / me_range=64 / chroma_me=1 / trellis=2 / 8x8dct=1 / cqm=0 / deadzone=21,11 / fast_pskip=1 / chroma_qp_offset=-2 / threads=6 / lookahead_threads=1 / sliced_threads=0 / nr=0 / decimate=1 / interlaced=0 / bluray_compat=0 / constrained_intra=0 / bframes=14 / b_pyramid=2 / b_adapt=2 / b_bias=0 / direct=1 / weightb=1 / open_gop=0 / weightp=2 / keyint=250 / keyint_min=25 / scenecut=40 / intra_refresh=0 / rc_lookahead=40 / rc=crf / mbtree=0 / crf=18.5000 / qcomp=0.70 / qpmin=0 / qpmax=69 / qpstep=4 / vbv_maxrate=17500 / vbv_bufsize=14000 / crf_max=0.0 / nal_hrd=none / ip_ratio=1.40 / pb_ratio=1.30 / aq=1:1.00
 Language : English
 Default : No
 Forced : No
 Matrix coefficients : BT.601

Audio #1
 ID : 2
 Format : AC-3
 Format/Info : Audio Coding 3
 Mode extension : CM (complete main)
 Format settings, Endianness : Big
 Codec ID : A_AC3
 Duration : 1h 28mn
 Bit rate mode : Constant
 Bit rate : 192 Kbps
 Channel(s) : 2 channels
 Channel positions : Front: L R
 Sampling rate : 48.0 KHz
 Bit depth : 16 bits
 Compression mode : Lossy
 Stream size : 121 MiB (8%)
 Title : DVO #1
 Language : Russian
 Default : Yes
 Forced : No

Audio #2
 ID : 3
 Format : AC-3
 Format/Info : Audio Coding 3
 Mode extension : CM (complete main)
 Format settings, Endianness : Big
 Codec ID : A_AC3
 Duration : 1h 28mn
 Bit rate mode : Constant
 Bit rate : 192 Kbps
 Channel(s) : 2 channels
 Channel positions : Front: L R
 Sampling rate : 48.0 KHz
 Bit depth : 16 bits
 Compression mode : Lossy
 Stream size : 121 MiB (8%)
 Title : DVO #2
 Language : Russian
 Default : No
 Forced : No

Text #1
 ID : 4
 Format : UTF-8
 Codec ID : S_TEXT/UTF8
 Codec ID/Info : UTF-8 Plain Text
 Language : Russian
 Default : No
 Forced : No

Text #2
 ID : 5
 Format : UTF-8
 Codec ID : S_TEXT/UTF8
 Codec ID/Info : UTF-8 Plain Text
 Language : English
 Default : No
 Forced : No

Menu
 00:00:00.000 : en:Chapter 01
 00:09:28.800 : en:Chapter 02
 ...
 01:28:23.160 : en:Chapter 13
Семпл: http://multi-up.com/792084

Релиз группы:

picpicpic
Для увеличения картинки щелкните мышкой по превью

Этот торрент недоступен для скачивания без регистрации, однако доступен по публичной magnet-ссылке (источники с публичных трекеров). Перед использованием ссылки прочтите, пожалуйста Пользовательское соглашение, а также как можно дольше оставайтесь на раздаче! Для того, чтобы скачать сам торрент-файл (который видит больше источников), а также для того, чтобы поблагодарить релизера, вам необходимо зарегистрироваться. Если регистрироваться лень - вы можете также попробовать скачать релиз по нашим партнерским ссылкам ниже.

[underverse.su].t21433.torrent
Трекер: Зарегистрирован   [ 20.11.2012 08:39 ]  

Статус: проверено (by Garnett at 20.11.2012 13:11)
Поблагодарили: пока никто не поблагодарил...
Тип торрента: публичный - доступные источники с открытых трекеров: 
Размер: 1,77 GB (занимает 0,4 DVDR, для записи нужно 1 болванка DVDR/RW)
 
 
Похожие темы
Форум Тема Автор Торрент Отв. Посл. сооб.
Зарубежное кино [DVDRip, Low-Res HDRip, и т.д.] Лепестки на ветру / Petals on the Wind (Карен Монкрифф) [2014 г., триллер, драма, мелодрама, WEB-DLRip] VO Паукан
44 | 1

0 | 1449

6

23.07.2014 14:03

Зарубежное кино [HDDVDRip / BDRip / WEB-DL / HDTV 1080/720р] Лепестки на ветру / Petals on the Wind (Карен Монкрифф / Karen Moncrieff) [2014 г., триллер, драма, мелодрама, WEB-DLRip 720p] VO (ViruseProject) + Original (Eng) + Sub (Rus) 90ytr90
0 | 0

0 | 732

16

25.07.2014 07:21


Яндекс.Метрика powered by Sphinx


В Н И М А Н И Е
Сайт не распространяет и не хранит электронные версии произведений, а лишь бесплатно и без коммерческой выгоды (не требуя взамен платы,
SMS и т.д.) предоставляет доступ к создаваемому пользователями каталогу ссылок на торрент-файлы, которые содержат только списки хеш-сумм.
Убедительная просьба с жалобами обращаться напрямую к пользователю, разместившему торрент файл.

Вверх