Loading...
Error

Егорушка (Александр Кулямин) [2010 г., драма, DVDRip]

Статистика раздачи
Размер:  1,44 GB   |    Зарегистрирован:  4 года   |    Скачан:  4 раза

Полного источника не было: 3 года 4 месяца

Сидов:  0  |  0 KB/s  ]   Личеров:  0  |  0 KB/s  ]

* - сиды/пиры с внешних источников

   
 
Автор Сообщение

DarkAngel Пол:Муж

18-Ноя-2012 18:04

Егорушка


Год выпуска: 2010
Жанр: драма
Страна: Россия
Режиссер: Александр Кулямин
В ролях: Лев Дуров, Юрий Назаров, Александр Воробьев, Александр Горшков, Вячеслав Гришечкин, Михаил Колядин, Елена Новикова, Алексей Паламарчук, Александр Печенин, Игорь Сукачев, Владимир Чуприков, Ирина Даниленко, Инора Заботина, Татьяна Косач-Брындина, Людмила Мальцева, Максим Салтыков, Владимир Федоров
Сюжет фильма:
Друзья ветераны Петр Ильич Ефимов и Андрей Иванович Карасев участвовали в битве за Москву в 1941-м. Они давно на пенсии, но полны боевого духа и готовы сразиться с врагами до последней капли крови. Потеряв все свои сбережения в афере строительных мошенников, они решают вспомнить молодость и наказать виновных. Их боевой товарищ — танк Т-34, которого старики ласково называют «Егорушка», теперь стоит на главной площади родного городка. Ветераны приводят в порядок силовую установку Т-34, делают запасы провианта, и однажды ночью «Егорушка» съезжает с пьедестала…
Качество видео: DVDRip

Продолжительность: 01:31:21
Формат: AVI
Видео: XviD, 704x400, 2059 kbps
Аудио: русский, оригинал, AC3 2.0, 192 kbps

Код:

General
Complete name : D:\Фильмы\egorushka.2010.dvdrip.avi
Format : AVI
Format/Info : Audio Video Interleave
File size : 1.44 GiB
Duration : 1h 31mn
Overall bit rate : 2 262 Kbps
Movie name : egorushka.2010.dvdrip.uniongang.tv
Director : riperrr
Writing application : VirtualDubMod 1.5.10.3 | www.virtualdub-fr.org || (build 2550/release)
Copyright : http://www.uniongang.tv/

Video
ID : 0
Format : MPEG-4 Visual
Format profile : Advanced Simple@L5
Format settings, BVOP : 1
Format settings, QPel : No
Format settings, GMC : No warppoints
Format settings, Matrix : Custom
Codec ID : XVID
Codec ID/Hint : XviD
Duration : 1h 31mn
Bit rate : 2 060 Kbps
Width : 704 pixels
Height : 400 pixels
Display aspect ratio : 16:9
Frame rate : 25.000 fps
Color space : YUV
Chroma subsampling : 4:2:0
Bit depth : 8 bits
Scan type : Progressive
Compression mode : Lossy
Bits/(Pixel*Frame) : 0.293
Stream size : 1.31 GiB (91%)
Writing library : XviD 65

Audio
ID : 1
Format : AC-3
Format/Info : Audio Coding 3
Mode extension : CM (complete main)
Format settings, Endianness : Big
Codec ID : 2000
Duration : 1h 31mn
Bit rate mode : Constant
Bit rate : 192 Kbps
Channel(s) : 2 channels
Channel positions : Front: L R
Sampling rate : 48.0 KHz
Bit depth : 16 bits
Compression mode : Lossy
Stream size : 125 MiB (8%)
Alignment : Split accross interleaves
Interleave, duration : 40 ms (1.00 video frame)
Interleave, preload duration : 500 ms
picpicpic
Для увеличения картинки щелкните мышкой по превью

Этот торрент недоступен для скачивания без регистрации, однако доступен по публичной magnet-ссылке (источники с публичных трекеров). Перед использованием ссылки прочтите, пожалуйста Пользовательское соглашение, а также как можно дольше оставайтесь на раздаче! Для того, чтобы скачать сам торрент-файл (который видит больше источников), а также для того, чтобы поблагодарить релизера, вам необходимо зарегистрироваться. Если регистрироваться лень - вы можете также попробовать скачать релиз по нашим партнерским ссылкам ниже.

[underverse.su].t21399.torrent
Трекер: Зарегистрирован   [ 18.11.2012 18:04 ]  

Статус: проверено (by Паукан at 18.11.2012 21:27)
Поблагодарили: пока никто не поблагодарил...
Тип торрента: публичный - доступные источники с открытых трекеров: 
Размер: 1,44 GB (занимает 0,33 DVDR, для записи нужно 1 болванка DVDR/RW)
 
 

Яндекс.Метрика powered by Sphinx


В Н И М А Н И Е
Сайт не распространяет и не хранит электронные версии произведений, а лишь бесплатно и без коммерческой выгоды (не требуя взамен платы,
SMS и т.д.) предоставляет доступ к создаваемому пользователями каталогу ссылок на торрент-файлы, которые содержат только списки хеш-сумм.
Убедительная просьба с жалобами обращаться напрямую к пользователю, разместившему торрент файл.

Вверх