Loading...
Error

Куклы (мини-сериал) [1-4 из 4] (Алексей Карелин) [2012 г., мелодрама, DVB]

Статистика раздачи
Размер:  7,31 GB   |    Зарегистрирован:  4 года   |    Скачан:  5 раз

Полного источника не было: 3 года 9 месяцев

Сидов:  0  |  0 KB/s  ]   Личеров:  0  |  0 KB/s  ]

* - сиды/пиры с внешних источников

   
 
Автор Сообщение

DarkAngel Пол:Муж

18-Ноя-2012 17:44

Куклы (мини-сериал)


Год выпуска: 2012
Жанр: мелодрама
Страна: Россия
Режиссер: Алексей Карелин
В ролях: Мария Аниканова, Олег Алмазов, Татьяна Чердынцева, Сергей Жбанков, Александр Тютин
Сюжет фильма:
Жизнь Риты давно сложилась и течет размеренно и спокойно. В ней есть все: муж Анатолий, дочь Ольга, работа и даже хобби — Рита делает кукол. Хотя ее куклы хороши, муж против такого хобби. Анатолий хочет, чтобы вся вселенная крутилась вокруг него. Рита должна себя отдавать ему без остатка. В ее куклах он видит конкуренцию. Вот себе любимому он позволяет все. Любое хобби. Даже любовницу.

И если бы Рита не узнала об этом, никогда бы мир не увидел ее кукол. Но теперь, когда Анатолий изгнан, надо найти возможность жить. Раньше она жила ради мужа. Ради чего жить теперь? Остается только одно — ее куклы.

Теперь Рита одна. Больше нет надежной стены, о которую можно было бы опереться. Придется позаботиться о себе самой, а значит — повзрослеть. Но путь взросления тернист. И на этом пути можно как встретить новую любовь, так и потерять ее.


Качество видео: DVB (Express MD1 at 80.0°E)

Продолжительность: ~0:45:00 серия
Формат: MPEG-PS
Видео: MPEG 2, 720x576 (4:3), 5392 kbps
Аудио: русский, оригинал, MP2 2.0, 256 kbps

Код:

Общее
Полное имя                               : L:\Раздачи\Куклы\Куклы.01.mpg
Формат                                   : MPEG-PS
Размер файла                             : 1,90 Гбайт
Продолжительность                        : 47 м.
Режим общего битрейта                    : Переменный
Общий поток                              : 5720 Кбит/сек
Библиотека кодирования                   : (c) 1998-2012 Womble Multimedia, Inc. / MPEG Video Wizard DVD 5.0.1.100 (03/2011) / Sep  7 2012

Видео
Идентификатор                            : 224 (0xE0)
Формат                                   : MPEG Video
Версия формата                           : Version 2
Профиль формата                          : Main@Main
Параметр BVOP формата                    : Да
Параметр матрицы формата                 : Выборочная
Параметр GOP формата                     : M=3, N=15
Продолжительность                        : 47 м.
Вид битрейта                             : Переменный
Битрейт                                  : 5350 Кбит/сек
Максимальный битрейт                     : 15,0 Мбит/сек
Ширина                                   : 720 пикселей
Высота                                   : 576 пикселей
Соотношение сторон                       : 4:3
Частота кадров                           : 25,000 кадров/сек
Стандарт вещания                         : PAL
Цветовое пространство                    : YUV
Субдискретизация насыщенности            : 4:2:0
Битовая глубина                          : 8 бит
Тип развёртки                            : Чересстрочная
Порядок развёртки                        : Верхнее поле первое
Метод сжатия                             : С потерями
Бит/(Пиксели*Кадры)                      : 0.516
Размер потока                            : 1,77 Гбайт (94%)
Выравнивание                             : (c) 1998-2012 Womble Multimedia, Inc. / MPEG Video Wizard DVD 5.0.1.100 (03/2011) / Sep  7 2012
Заголовок                                : (c) 1998-2012 Womble Multimedia, Inc. / MPEG Video Wizard DVD 5.0.1.100 (03/2011) / Sep  7 2012
Библиотека кодирования                   : (c) 1998-2012 Womble Multimedia, Inc. / MPEG Video Wizard DVD 5.0.1.100 (03/2011) / Sep  7 2012

Аудио
Идентификатор                            : 192 (0xC0)
Формат                                   : MPEG Audio
Версия формата                           : Version 1
Профиль формата                          : Layer 2
Продолжительность                        : 47 м.
Вид битрейта                             : Постоянный
Битрейт                                  : 256 Кбит/сек
Каналы                                   : 2 канала
Частота                                  : 48,0 КГц
Метод сжатия                             : С потерями
Задержка видео                           : -80 мс.
Размер потока                            : 87,0 Мбайт (4%)

Меню
Семпл: http://multi-up.com/791539

picpicpic
Для увеличения картинки щелкните мышкой по превью

Этот торрент недоступен для скачивания без регистрации, однако доступен по публичной magnet-ссылке (источники с публичных трекеров). Перед использованием ссылки прочтите, пожалуйста Пользовательское соглашение, а также как можно дольше оставайтесь на раздаче! Для того, чтобы скачать сам торрент-файл (который видит больше источников), а также для того, чтобы поблагодарить релизера, вам необходимо зарегистрироваться. Если регистрироваться лень - вы можете также попробовать скачать релиз по нашим партнерским ссылкам ниже.

[underverse.su].t21396.torrent
Трекер: Зарегистрирован   [ 18.11.2012 17:44 ]  

Статус: проверено (by Паукан at 18.11.2012 21:31)
Поблагодарили: 1 человек
Тип торрента: публичный - доступные источники с открытых трекеров: 
Размер: 7,31 GB (занимает 1,67 DVDR, для записи нужно 2 болванки DVDR/RW)
 
 

garry Пол:Муж

18-Ноя-2012 18:04

Цитата:

Movies In Original Language» TV Series
а по рукам? :evil:

18-Ноя-2012 21:29

Топик был перенесен из форума TV Series в форум xUSSR сериалы


dj_maxx
 

Яндекс.Метрика powered by Sphinx


В Н И М А Н И Е
Сайт не распространяет и не хранит электронные версии произведений, а лишь бесплатно и без коммерческой выгоды (не требуя взамен платы,
SMS и т.д.) предоставляет доступ к создаваемому пользователями каталогу ссылок на торрент-файлы, которые содержат только списки хеш-сумм.
Убедительная просьба с жалобами обращаться напрямую к пользователю, разместившему торрент файл.

Вверх