Loading...
Error

Навыки / Skills (Йоханес Рунеборг) [2010 г., приключения, боевик, криминальный, экстрим, HDRip] VO + Original (Swe)

Статистика раздачи
Размер:  1,37 GB   |    Зарегистрирован:  4 года   |    Скачан:  20 раз

Полного источника не было: 3 года 2 месяца

Сидов:  0  |  0 KB/s  ]   Личеров:  0  |  0 KB/s  ]

* - сиды/пиры с внешних источников

   
 
Автор Сообщение

DarkAngel Пол:Муж

18-Ноя-2012 17:33

Навыки / Skills


Год выпуска: 2010
Жанр: приключения, боевик, криминальный, экстрим
Страна: Швеция
Режиссер: Йоханес Рунеборг / Johannes Runeborg
В ролях: Маркус Густафссон, Ми Агнуссон, Тим Ман, Син Бэнан
Сюжет фильма:
Отличный боевик о молодежи, занимающейся экстремальными видами спорта (паркур, скэйтборд, боевые искусства). В фильме есть все необходимое для боевика: погони, драки, любовный треугольник и детективный сюжет.
Качество видео: HDRip

Продолжительность: 01:25:30
Формат: AVI
Видео: XviD, 720x400 (1.80:1), ~1888 kbps
Аудио #1: русский, одноголосый закадровый [любительский], AC3 2.0, 192 kbps
Аудио #2: шведский, оригинал, AC3 2.0, 192 kbps

Код:

General
Complete name : C:Navyki.2010.L1.HDRip.avi
Format : AVI
Format/Info : Audio Video Interleave
File size : 1.37 GiB
Duration : 1h 25mn
Overall bit rate : 2 288 Kbps
Movie name : Skills.2010.L1.DVDRip
Genre : Action/Sports
Writing application : VirtualDubMod 1.5.10.2 (build 2540/release)
Writing library : VirtualDubMod build 2540/release
Original source form/Name : Movie

Video
ID : 0
Format : MPEG-4 Visual
Format profile : Advanced Simple@L5
Format settings, BVOP : 4
Format settings, QPel : No
Format settings, GMC : No warppoints
Format settings, Matrix : Default (MPEG)
Codec ID : XVID
Codec ID/Hint : XviD
Duration : 1h 25mn
Bit rate : 1 890 Kbps
Width : 720 pixels
Height : 400 pixels
Display aspect ratio : 16:9
Frame rate : 25.000 fps
Color space : YUV
Chroma subsampling : 4:2:0
Bit depth : 8 bits
Scan type : Progressive
Compression mode : Lossy
Bits/(Pixel*Frame) : 0.262
Stream size : 1.13 GiB (83%)
Writing library : XviD 1.2.1 (UTC 2008-12-04)

Audio #1
ID : 1
Format : AC-3
Format/Info : Audio Coding 3
Mode extension : CM (complete main)
Codec ID : 2000
Duration : 1h 25mn
Bit rate mode : Constant
Bit rate : 192 Kbps
Channel(s) : 2 channels
Channel positions : Front: L R
Sampling rate : 48.0 KHz
Bit depth : 16 bits
Compression mode : Lossy
Stream size : 117 MiB (8%)
Alignment : Split accross interleaves
Interleave, duration : 40 ms (1.00 video frame)
Interleave, preload duration : 500 ms

Audio #2
ID : 2
Format : AC-3
Format/Info : Audio Coding 3
Mode extension : CM (complete main)
Codec ID : 2000
Duration : 1h 25mn
Bit rate mode : Constant
Bit rate : 192 Kbps
Channel(s) : 2 channels
Channel positions : Front: L R
Sampling rate : 48.0 KHz
Bit depth : 16 bits
Compression mode : Lossy
Stream size : 117 MiB (8%)
Alignment : Aligned on interleaves
Interleave, duration : 40 ms (1.00 video frame)
Interleave, preload duration : 512 ms
Семпл: http://onemove.ru/46342/

picpicpic
Для увеличения картинки щелкните мышкой по превью

Этот торрент недоступен для скачивания без регистрации, однако доступен по публичной magnet-ссылке (источники с публичных трекеров). Перед использованием ссылки прочтите, пожалуйста Пользовательское соглашение, а также как можно дольше оставайтесь на раздаче! Для того, чтобы скачать сам торрент-файл (который видит больше источников), а также для того, чтобы поблагодарить релизера, вам необходимо зарегистрироваться. Если регистрироваться лень - вы можете также попробовать скачать релиз по нашим партнерским ссылкам ниже.

[underverse.su].t21395.torrent
Трекер: Зарегистрирован   [ 18.11.2012 17:33 ]  

Статус: проверено (by garry at 19.11.2012 06:27)
Поблагодарили: пока никто не поблагодарил...
Тип торрента: публичный - доступные источники с открытых трекеров: 
Размер: 1,37 GB (занимает 0,31 DVDR, для записи нужно 1 болванка DVDR/RW)
 
 

Яндекс.Метрика powered by Sphinx


В Н И М А Н И Е
Сайт не распространяет и не хранит электронные версии произведений, а лишь бесплатно и без коммерческой выгоды (не требуя взамен платы,
SMS и т.д.) предоставляет доступ к создаваемому пользователями каталогу ссылок на торрент-файлы, которые содержат только списки хеш-сумм.
Убедительная просьба с жалобами обращаться напрямую к пользователю, разместившему торрент файл.

Вверх