Loading...
Error

Женщина в красном / The Woman in Red (Джин Уайлдер) [1984 г., мелодрама, комедия, HDTVRip-AVC] MVO + AVO + Original

Статистика раздачи
Размер:  2,18 GB   |    Зарегистрирован:  4 года   |    Скачан:  6 раз

Полного источника не было: 4 месяца 10 дней

Сидов:  0  |  0 KB/s  ]   Личеров:  0  |  0 KB/s  ]

* - сиды/пиры с внешних источников

   
 
Автор Сообщение

garry Пол:Муж

16-Ноя-2012 23:08

Женщина в красном / The Woman in Red


Год выпуска: 1984
Жанр: мелодрама, комедия
Страна: США
Режиссер: Джин Уайлдер
В ролях: Джин Уайлдер, Чарльз Гродин, Джозеф Болонья, Джудит Айви, Майкл Хаддлстон, Келли ЛеБрок, Гилда Рэднер, Кайл Т. Хеффнер, Майкл Зорек, Билли Бек
Сюжет фильма:
Однажды Тедди оказывается в одних трусах на карнизе за окном спальни красотки, и все это снимает телевидение. Как он оказался в этой нелепой ситуации? Всему виной сногсшибательная красавица Шарлотта, женщина в красном платье. У Тедди Пирса, есть все что нужно для счастливой жизни — милая жена, дети, хорошая работа, друзья.

Все бы хорошо, но он отчаянно скучает и переживает кризис среднего возраста. Увидев сногсшибательную красотку в развевающемся красном платье, он безумно влюбляется в нее и теперь единственная цель для него — забраться в ее постель. Все свое свободное время он тайно преследует предмет своей страсти, пытаясь во чтобы не стало осуществить задуманное.

Его друзья пускаются во все тяжкие, чтобы прикрыть его, от исполнения заветного желания отделяет одно мгновение, но…

  • Мировая премьера: 15 августа 1984


Качество видео: HDTVRip-AVC

Продолжительность: 01:22:58
Формат: MKV
Видео: x264, 1056x572, 3190 kbps
Аудио #1: русский, многоголосый закадровый [профессиональный, Екатеринбург Арт], AC3 2.0, 192 kbps
Аудио #2: русский, одноголосый закадровый [авторский, Михалёв], AC3 2.0, 192 kbps
Аудио #3: английский, оригинал, AC3 2.0, 192 kbps
Субтитры: тип: вшитые отключаемые, английский, формат: SRT

Код:

General
 Unique ID : 224783327413256016148904286509931284793 (0xA91BB1B244DCE3A68A297FB5DF71C939)
 Complete name : F:\FILMS\___ - R - ___\The Woman in Red.mkv
 Format : Matroska
 Format version : Version 2
 File size : 2.18 GiB
 Duration : 1h 22mn
 Overall bit rate : 3 766 Kbps
 Encoded date : UTC 2012-11-14 19:15:49
 Writing application : mkvmerge v5.6.0 ('Kenya Kane') built on May 27 2012 16:44:04
 Writing library : libebml v1.2.3 + libmatroska v1.3.0

Video
 ID : 1
 Format : AVC
 Format/Info : Advanced Video Codec
 Format profile : High@L4.1
 Format settings, CABAC : Yes
 Format settings, ReFrames : 13 frames
 Codec ID : V_MPEG4/ISO/AVC
 Duration : 1h 22mn
 Bit rate : 3 190 Kbps
 Width : 1 056 pixels
 Height : 572 pixels
 Display aspect ratio : 1.85:1
 Frame rate : 25.000 fps
 Color space : YUV
 Chroma subsampling : 4:2:0
 Bit depth : 8 bits
 Scan type : Progressive
 Bits/(Pixel*Frame) : 0.211
 Stream size : 1.81 GiB (83%)
 Title : AVC 1056x572@25 fps ~3190 kBit/s 2-pass High 4.1
 Writing library : x264 core 122 r2184bm 5c85e0a
 Encoding settings : cabac=1 / ref=13 / deblock=1:-2:-2 / analyse=0x3:0x133 / me=umh / subme=10 / psy=1 / psy_rd=1.00:0.01 / mixed_ref=1 / me_range=48 / chroma_me=1 / trellis=2 / 8x8dct=1 / cqm=0 / deadzone=21,11 / fast_pskip=0 / chroma_qp_offset=-3 / threads=6 / sliced_threads=0 / nr=0 / decimate=0 / interlaced=0 / bluray_compat=0 / constrained_intra=0 / bframes=8 / b_pyramid=2 / b_adapt=2 / b_bias=0 / direct=3 / weightb=1 / open_gop=0 / weightp=2 / keyint=250 / keyint_min=25 / scenecut=40 / intra_refresh=0 / rc=2pass / mbtree=0 / bitrate=3190 / ratetol=1.0 / qcomp=0.90 / qpmin=0 / qpmax=69 / qpstep=4 / cplxblur=20.0 / qblur=0.5 / ip_ratio=1.40 / pb_ratio=1.35 / aq=2:1.20
 Language : English
 Default : Yes
 Forced : No

Audio #1
 ID : 3
 Format : AC-3
 Format/Info : Audio Coding 3
 Mode extension : CM (complete main)
 Format settings, Endianness : Big
 Codec ID : A_AC3
 Duration : 1h 22mn
 Bit rate mode : Constant
 Bit rate : 192 Kbps
 Channel(s) : 2 channels
 Channel positions : Front: L R
 Sampling rate : 48.0 KHz
 Bit depth : 16 bits
 Compression mode : Lossy
 Stream size : 114 MiB (5%)
 Title : Екатеринбург Арт AC3 192 kBit/s 48 kHz 2.0 DD
 Language : Russian
 Default : Yes
 Forced : No

Audio #2
 ID : 2
 Format : AC-3
 Format/Info : Audio Coding 3
 Mode extension : CM (complete main)
 Format settings, Endianness : Big
 Codec ID : A_AC3
 Duration : 1h 22mn
 Bit rate mode : Constant
 Bit rate : 192 Kbps
 Channel(s) : 2 channels
 Channel positions : Front: L R
 Sampling rate : 48.0 KHz
 Bit depth : 16 bits
 Compression mode : Lossy
 Delay relative to video : 16ms
 Stream size : 114 MiB (5%)
 Title : Михалёв AC3 192 kBit/s 48 kHz 2.0 DD
 Language : Russian
 Default : No
 Forced : No

Audio #3
 ID : 4
 Format : AC-3
 Format/Info : Audio Coding 3
 Mode extension : CM (complete main)
 Format settings, Endianness : Big
 Codec ID : A_AC3
 Duration : 1h 22mn
 Bit rate mode : Constant
 Bit rate : 192 Kbps
 Channel(s) : 2 channels
 Channel positions : Front: L R
 Sampling rate : 48.0 KHz
 Bit depth : 16 bits
 Compression mode : Lossy
 Delay relative to video : 17ms
 Stream size : 114 MiB (5%)
 Title : AC3 192 kBit/s 48 kHz 2.0 DD
 Language : English
 Default : No
 Forced : No

Text
 ID : 5
 Format : UTF-8
 Codec ID : S_TEXT/UTF8
 Codec ID/Info : UTF-8 Plain Text
 Language : English
 Default : No
 Forced : No
Семпл: http://narod.ru/disk/63762567001.437c6580f7f2246c09a7281d67c8d1c3/The%20Woman%20in%20Red%20(1)-002.mkv.html

Релиз группы:

picpicpic
Для увеличения картинки щелкните мышкой по превью

Этот торрент недоступен для скачивания без регистрации, однако доступен по публичной magnet-ссылке (источники с публичных трекеров). Перед использованием ссылки прочтите, пожалуйста Пользовательское соглашение, а также как можно дольше оставайтесь на раздаче! Для того, чтобы скачать сам торрент-файл (который видит больше источников), а также для того, чтобы поблагодарить релизера, вам необходимо зарегистрироваться. Если регистрироваться лень - вы можете также попробовать скачать релиз по нашим партнерским ссылкам ниже.

[underverse.su].t21354.torrent
Трекер: Зарегистрирован   [ 16.11.2012 23:08 ]  

Статус: проверено (by Garnett at 17.11.2012 10:09)
Поблагодарили: пока никто не поблагодарил...
Тип торрента: публичный - доступные источники с открытых трекеров: 
Размер: 2,18 GB (занимает 1/2 DVDR, для записи нужно 1 болванка DVDR/RW)
 
 
Похожие темы
Форум Тема Автор Торрент Отв. Посл. сооб.
Зарубежное кино [DVDRip, Low-Res HDRip, и т.д.] Женщина в черном / The Woman in Black (Джеймс Уоткинс) [2012 г., ужасы, триллер, драма, HDRip] garry
1 | 0

2 | 769

52

31.03.2015 16:01

Зарубежное кино [DVDRip, Low-Res HDRip, и т.д.] Женщина в черном / The Woman in Black (Джеймс Уоткинс) [2012 г., ужасы, триллер, драма, HDRip] WeaSel
0 | 0

0 | 572

2

27.06.2012 17:40

Зарубежное кино [DVDRip, Low-Res HDRip, и т.д.] Женщина в клетке / Мистериум. Начало (Миккель Нёргор) [2013 г., триллер, криминал, детектив, HDRip] MVO + Original (Dan) Grey
19 | 0

3 | 1589

36

10.03.2014 08:43

T Зарубежное кино [DVDRip, Low-Res HDRip, и т.д.] Женщина в черном 2: Ангел смерти / The Woman in Black 2: Angel of Death (Том Харпер / Tom Harper.) [2014 г., ужасы, триллер, драма, HDRip] Dub (чистый звук) 90ytr90
7 | 1

0 | 727

35

18.02.2015 18:12

T Зарубежное кино [DVDRip, Low-Res HDRip, и т.д.] Женщина в черном 2: Ангел смерти / The Woman in Black 2: Angel of Death (Том Харпер) [2014 г., ужасы, триллер, драма, HDRip] Dub [чистый звук] + Original Паукан
0 | 0

0 | 430

14

31.03.2015 13:49

Зарубежное кино [DVDRip, Low-Res HDRip, и т.д.] Женщина в золотом / Woman in Gold (Саймон Кертис) [2015 г., драма, HDRip] DVO makkol
6 | 0

0 | 388

16

11.07.2015 12:59

Зарубежное кино [DVDRip, Low-Res HDRip, и т.д.] Женщина в золотом / Woman in Gold (Саймон Кертис) [2015 г., драма, история, BDRip] MVO makkol
21 | 1

0 | 598

9

30.04.2016 21:58

Зарубежное кино [DVDRip, Low-Res HDRip, и т.д.] Женщина в золотом / Woman in Gold (Саймон Кертис / Simon Curtis) [2015 г., драма, история, BDRip-AVC] MVO (FocusStudio) + Original (Eng) + Sub (Rus, Eng) 90ytr90
23 | 0

0 | 538

3

04.05.2016 17:09

Зарубежное кино HQ Женщина в черном / The Woman in Black (Джеймс Уоткинс) [2012 г., ужасы, триллер, драма, HDRip] (Rus, Eng) HQ Underverse HQ Underverse
0 | 0

0 | 863

23

06.07.2012 12:39

xUSSR сериалы Женщина в беде [04 серии из 04] (Андрей Щербинин) [2014 г., мелодрама, криминальный, SatRip] konopic
7 | 0

0 | 963

16

21.03.2014 09:46


Яндекс.Метрика powered by Sphinx


В Н И М А Н И Е
Сайт не распространяет и не хранит электронные версии произведений, а лишь бесплатно и без коммерческой выгоды (не требуя взамен платы,
SMS и т.д.) предоставляет доступ к создаваемому пользователями каталогу ссылок на торрент-файлы, которые содержат только списки хеш-сумм.
Убедительная просьба с жалобами обращаться напрямую к пользователю, разместившему торрент файл.

Вверх