Loading...
Error

Денежный поезд / Money Train (Джозеф Рубин) [1995 г., боевик, триллер, драма, комедия, криминал, BDRip-AVC] Dub + Original

Статистика раздачи
Размер:  2,91 GB   |    Зарегистрирован:  4 года   |    Скачан:  4 раза

Полного источника не было: 1 месяц 23 дня

Сидов:  0  |  0 KB/s  ]   Личеров:  0  |  0 KB/s  ]

* - сиды/пиры с внешних источников

   
 
Автор Сообщение

garry Пол:Муж

16-Ноя-2012 17:36

Денежный поезд / Money Train


Год выпуска: 1995
Жанр: боевик, триллер, драма, комедия, криминал
Страна: США
Режиссер: Джозеф Рубин
В ролях: Уэсли Снайпс, Вуди Харрельсон, Дженнифер Лопез, Роберт Блейк, Крис Купер, Джо Грифази, Скотт Сауэрс, Скипп Саддат, Винсент Лареска, Нельсон Васкес
Сюжет фильма:
Два сводных брата, белый и чернокожий, с детства мечтавшие лишь об одном — разбогатеть, задумывают дерзкое ограбление. Цель налетчиков — поезд метро, каждую ночь перевозящий миллионы по тоннелям нью — йоркской подземки. Только два обстоятельства останавливают их: они оба полицейские, а поезд находится под личной охраной их босса.

Но соблазн слишком велик, да и вредному боссу, накануне уволившему их со службы, насолить очень уж хочется, и вот — в новогоднюю ночь пара новоявленных грабителей решает осуществить то, о чем они грезили всю жизнь — угнать поезд и стать миллионерами…

  • Мировая премьера: 12 ноября 1995


Качество видео: BDRip-AVC

Продолжительность: 01:49:58
Формат: MKV
Видео: x264, 1072x446, 2957 kbps
Аудио #1: русский, дублированный, AC3 5.1, 384 kbps
Аудио #2: английский, оригинал, AC3 5.1, 448 kbps
Субтитры: тип: вшитые отключаемые, русский, формат: SRT

Код:

General
 Unique ID : 219042294388322792157201338739935676162 (0xA4CA02EA203176B0BB60516872B80702)
 Complete name : F:\FILMS\___ - R - ___\Money Train\Money Train.mkv
 Format : Matroska
 Format version : Version 2
 File size : 2.91 GiB
 Duration : 1h 49mn
 Overall bit rate : 3 788 Kbps
 Movie name : Money.Train.1995.1080p.Bluray.AVC.Remux
 Encoded date : UTC 2012-11-15 17:24:24
 Writing application : mkvmerge v5.6.0 ('Kenya Kane') built on May 27 2012 16:44:04
 Writing library : libebml v1.2.3 + libmatroska v1.3.0

Video
 ID : 1
 Format : AVC
 Format/Info : Advanced Video Codec
 Format profile : High@L4.1
 Format settings, CABAC : Yes
 Format settings, ReFrames : 16 frames
 Codec ID : V_MPEG4/ISO/AVC
 Duration : 1h 49mn
 Bit rate : 2 957 Kbps
 Width : 1 072 pixels
 Height : 446 pixels
 Display aspect ratio : 2.40:1
 Frame rate : 23.976 fps
 Color space : YUV
 Chroma subsampling : 4:2:0
 Bit depth : 8 bits
 Scan type : Progressive
 Bits/(Pixel*Frame) : 0.258
 Stream size : 2.21 GiB (76%)
 Title : AVC 1072x446@23.976 fps ~2957 kBit/s 2-pass High 4.1
 Writing library : x264 core 122 r2184bm 5c85e0a
 Encoding settings : cabac=1 / ref=16 / deblock=1:-1:-1 / analyse=0x3:0x133 / me=umh / subme=10 / psy=1 / psy_rd=1.00:0.05 / mixed_ref=1 / me_range=48 / chroma_me=1 / trellis=2 / 8x8dct=1 / cqm=0 / deadzone=21,11 / fast_pskip=0 / chroma_qp_offset=-3 / threads=6 / sliced_threads=0 / nr=0 / decimate=0 / interlaced=0 / bluray_compat=0 / constrained_intra=0 / bframes=9 / b_pyramid=2 / b_adapt=2 / b_bias=0 / direct=3 / weightb=1 / open_gop=0 / weightp=2 / keyint=250 / keyint_min=23 / scenecut=40 / intra_refresh=0 / rc=2pass / mbtree=0 / bitrate=2957 / ratetol=1.0 / qcomp=0.90 / qpmin=0 / qpmax=69 / qpstep=4 / cplxblur=20.0 / qblur=0.5 / ip_ratio=1.40 / pb_ratio=1.35 / aq=2:0.90
 Language : English
 Default : Yes
 Forced : No

Audio #1
 ID : 2
 Format : AC-3
 Format/Info : Audio Coding 3
 Mode extension : CM (complete main)
 Format settings, Endianness : Big
 Codec ID : A_AC3
 Duration : 1h 49mn
 Bit rate mode : Constant
 Bit rate : 384 Kbps
 Channel(s) : 6 channels
 Channel positions : Front: L C R, Side: L R, LFE
 Sampling rate : 48.0 KHz
 Bit depth : 16 bits
 Compression mode : Lossy
 Stream size : 302 MiB (10%)
 Title : дубляж AC3 384 kBit/s 48 kHz 5.1 DD
 Language : Russian
 Default : Yes
 Forced : No

Audio #2
 ID : 3
 Format : AC-3
 Format/Info : Audio Coding 3
 Mode extension : CM (complete main)
 Format settings, Endianness : Big
 Codec ID : A_AC3
 Duration : 1h 49mn
 Bit rate mode : Constant
 Bit rate : 448 Kbps
 Channel(s) : 6 channels
 Channel positions : Front: L C R, Side: L R, LFE
 Sampling rate : 48.0 KHz
 Bit depth : 16 bits
 Compression mode : Lossy
 Stream size : 352 MiB (12%)
 Title : English AC3 448 kBit/s 48 kHz 5.1 DD
 Language : English
 Default : No
 Forced : No

Text
 ID : 4
 Format : UTF-8
 Codec ID : S_TEXT/UTF8
 Codec ID/Info : UTF-8 Plain Text
 Language : Russian
 Default : Yes
 Forced : No

Menu
 00:00:00.000 : en:00:00:00.000
 00:05:49.140 : en:00:05:49.140
 00:12:44.347 : en:00:12:44.347
 00:17:12.281 : en:00:17:12.281
 00:25:01.667 : en:00:25:01.667
 00:31:20.170 : en:00:31:20.170
 00:40:27.550 : en:00:40:27.550
 00:46:52.393 : en:00:46:52.393
 00:50:31.862 : en:00:50:31.862
 00:56:01.692 : en:00:56:01.692
 01:02:50.809 : en:01:02:50.809
 01:11:31.704 : en:01:11:31.704
 01:14:40.935 : en:01:14:40.935
 01:22:01.917 : en:01:22:01.917
 01:27:19.317 : en:01:27:19.317
 01:39:45.646 : en:01:39:45.646
Семпл: http://narod.ru/disk/63760245001.5431aca1839a2293cf1e3a4ba0d642d9/Money%20Train%20(1)-002.mkv.html

Релиз группы:

picpicpic
Для увеличения картинки щелкните мышкой по превью

Этот торрент недоступен для скачивания без регистрации, однако доступен по публичной magnet-ссылке (источники с публичных трекеров). Перед использованием ссылки прочтите, пожалуйста Пользовательское соглашение, а также как можно дольше оставайтесь на раздаче! Для того, чтобы скачать сам торрент-файл (который видит больше источников), а также для того, чтобы поблагодарить релизера, вам необходимо зарегистрироваться. Если регистрироваться лень - вы можете также попробовать скачать релиз по нашим партнерским ссылкам ниже.

[underverse.su].t21342.torrent
Трекер: Зарегистрирован   [ 16.11.2012 17:36 ]  

Статус: проверено (by Garnett at 16.11.2012 18:17)
Поблагодарили: пока никто не поблагодарил...
Тип торрента: публичный - доступные источники с открытых трекеров: 
Размер: 2,91 GB (занимает 2/3 DVDR, для записи нужно 1 болванка DVDR/RW)
 
 

Яндекс.Метрика powered by Sphinx


В Н И М А Н И Е
Сайт не распространяет и не хранит электронные версии произведений, а лишь бесплатно и без коммерческой выгоды (не требуя взамен платы,
SMS и т.д.) предоставляет доступ к создаваемому пользователями каталогу ссылок на торрент-файлы, которые содержат только списки хеш-сумм.
Убедительная просьба с жалобами обращаться напрямую к пользователю, разместившему торрент файл.

Вверх