Loading...
Error

Друг (Леонид Квинихидзе) [1987 г., драма, мелодрама, DVDRip]

Статистика раздачи
Размер:  1,37 GB   |    Зарегистрирован:  4 года   |    Скачан:  5 раз

Полного источника не было: 1 год 9 месяцев

Сидов:  0  |  0 KB/s  ]   Личеров:  0  |  0 KB/s  ]

* - сиды/пиры с внешних источников

   
 
Автор Сообщение

wesco 

15-Ноя-2012 18:38

Друг


Год выпуска: 1987
Жанр: драма, мелодрама
Страна: СССР
Режиссер: Леонид Квинихидзе
В ролях: Сергей Шакуров, Василий Ливанов, Елена Соловей, Игорь Ясулович, Виктор Уральский, Анатолий Ромашин, Галина Польских, Татьяна Кочемасова, Наталья Коренченко, Татьяна Степанова
Сюжет фильма:
Невероятная история о дружбе пьяницы и говорящей собаки, которая лучше людей понимает, что значит быть настоящим человеком.

  • Мировая премьера: 10 мая 1988

Качество видео: DVDRip

Продолжительность: 01:18:21
Формат: AVI
Видео: DivX 4, 704х528, 2295 Кбит/сек
Аудио: русский, оригинал, AC-3, 192 kbps

Код:

Общее
Полное имя : E:\video\Друг\Drug\Drug.avi
Формат : AVI
Формат/Информация : Audio Video Interleave
Размер файла : 1,37 Гбайт
Продолжительность : 1 ч. 18 м.
Общий поток : 2497 Кбит/сек
Программа кодирования : VirtualDubMod 1.5.10.3 | www.virtualdub-fr.org || (build 2550/release)
Библиотека кодирования : VirtualDubMod build 2550/release

Видео
Идентификатор : 0
Формат : MPEG-4 Visual
Профиль формата : Advanced Simple@L5
Параметр BVOP формата : 2
Параметр QPel формата : Нет
Параметр GMC формата : Без точки перехода
Параметр матрицы формата : Default (MPEG)
Режим смешивания : Сжатый битовый поток
Идентификатор кодека : DIVX
Идентификатор кодека/Информация : Project Mayo
Идентификатор кодека/Подсказка : DivX 4
Продолжительность : 1 ч. 18 м.
Битрейт : 2295 Кбит/сек
Ширина : 704 пикселя
Высота : 528 пикселей
Соотношение сторон : 4:3
Частота кадров : 25,000 кадров/сек
Цветовое пространство : YUV
Субдискретизация насыщенности : 4:2:0
Битовая глубина : 8 бит
Тип развёртки : Прогрессивная
Метод сжатия : С потерями
Бит/(Пиксели*Кадры) : 0.247
Размер потока : 1,26 Гбайт (92%)
Библиотека кодирования : XviD 1.2.1 (UTC 2008-12-04)

Аудио
Идентификатор : 1
Формат : AC-3
Формат/Информация : Audio Coding 3
Расширение режима : CM (complete main)
Параметр Endianness формата : Big
Идентификатор кодека : 2000
Продолжительность : 1 ч. 18 м.
Вид битрейта : Постоянный
Битрейт : 192 Кбит/сек
Каналы : 2 канала
Расположение каналов : Front: L R
Частота : 48,0 КГц
Битовая глубина : 16 бит
Метод сжатия : С потерями
Размер потока : 108 Мбайт (8%)
Выравнивание : Разделение по промежуткам
Продолжительность промежутка : 40 мс. (1,00 видеокадр)
Время предзагрузки промежутка : 500 мс.
picpicpic
Для увеличения картинки щелкните мышкой по превью

Этот торрент недоступен для скачивания без регистрации, однако доступен по публичной magnet-ссылке (источники с публичных трекеров). Перед использованием ссылки прочтите, пожалуйста Пользовательское соглашение, а также как можно дольше оставайтесь на раздаче! Для того, чтобы скачать сам торрент-файл (который видит больше источников), а также для того, чтобы поблагодарить релизера, вам необходимо зарегистрироваться. Если регистрироваться лень - вы можете также попробовать скачать релиз по нашим партнерским ссылкам ниже.

[underverse.su].t21328.torrent
Трекер: Зарегистрирован   [ 15.11.2012 18:38 ]  

Статус: проверено (by garry at 16.11.2012 15:08)
Поблагодарили: 2 человека
Тип торрента: публичный - доступные источники с открытых трекеров: 
Размер: 1,37 GB (занимает 0,31 DVDR, для записи нужно 1 болванка DVDR/RW)
 
 


Последний раз редактировалось: wesco (16.11.2012 13:05), всего редактировалось 4 раз(а)

walker Пол:Муж

16-Ноя-2012 17:01

жесть

Яндекс.Метрика powered by Sphinx


В Н И М А Н И Е
Сайт не распространяет и не хранит электронные версии произведений, а лишь бесплатно и без коммерческой выгоды (не требуя взамен платы,
SMS и т.д.) предоставляет доступ к создаваемому пользователями каталогу ссылок на торрент-файлы, которые содержат только списки хеш-сумм.
Убедительная просьба с жалобами обращаться напрямую к пользователю, разместившему торрент файл.

Вверх