Loading...
Error

Брат за брата / Серии: 1-24 из 24 (Олег Туранский, Олег Ларин) [2010, Детектив, SATRip]

Статистика раздачи
Размер:  12,9 GB   |    Зарегистрирован:  4 года   |    Скачан:  11 раз

Полного источника не было: 1 год 11 месяцев

Сидов:  0  |  0 KB/s  ]   Личеров:  0  |  0 KB/s  ]

* - сиды/пиры с внешних источников

   
 
Автор Сообщение

nemos Пол:Муж

15-Ноя-2012 16:48



Год выпуска: 2010
Жанр: Драма, криминал
Страна: Украина
Режиссер: Олег Туранский, Олег Ларин
В ролях: Ярослав Бойко, Владимир Стеклов, Константин Стрельников, Егор Клейменов, Сергей Романюк, Максим Дрозд, Виталий Линецкий, Станислав Боклан, Дмитрий Суржиков, Александр Кобзарь
Сюжет фильма:
Такие кварталы, как Гарлем, раньше можно было увидеть только в голливудских боевиках. Никто не думал, что они могут появиться и у нас. Гарлем — настоящее гетто в одном из крупных российских городов. Здесь почти открыто торгуют наркотиками и перепродают краденое. Школьные учителя боятся своих учеников, ведь те способны убить за плохую оценку. Местные стражи правопорядка не рискуют в позднее время суток лишний раз появляться на его улицах, а жители так привыкли к установленным правилам игры, что кажется, ничто и никогда не сможет заставить их иначе смотреть на происходящее вокруг.

Жизнь Гарлема меняется с приездом Игоря Светлова. Окончив Высшую школу милиции в Москве, он работал в «убойном» отделе столичного ГУВД, а теперь вернулся в родной город, чтобы разыскать убийцу своего брата.

Игорь хочет навести порядок в Гарлеме. Но ему придется противостоять не только бандитам — по другую сторону баррикад окажутся сослуживцы и близкие люди. На улицах микрорайона начинается война на выживание…


Качество видео: SatRip

Продолжительность: 00:45:55 серия
Формат: AVI
Видео: XviD, 704x400 , 1 537kbps
Аудио: русский, MP3 2.0, 128 kbps

Код:

E:\ÑÊÀ×ÊÈ\Ñ underverse\Áðàò çà áðàòà.SATRip-SVAT\Áðàò çà áðàòà.02.SATRip-SVAT.avi
   General
      Complete name : E:\ÑÊÀ×ÊÈ\Ñ underverse\Áðàò çà áðàòà.SATRip-SVAT\Áðàò çà áðàòà.02.SATRip-SVAT.avi
      Format : AVI
      Format/Info : Audio Video Interleave
      File size : 550 MiB
      Duration : 45mn 55s
      Overall bit rate : 1 675 Kbps
      Writing application : VirtualDubMod 1.5.10.3 | www.virtualdub-fr.org || (build 2550/release)
      Writing library : VirtualDubMod build 2550/release
   Video #0
      ID : 0
      Format : MPEG-4 Visual
      Format profile : Advanced Simple@L5
      Format settings, BVOP : 1
      Format settings, QPel : No
      Format settings, GMC : No warppoints
      Format settings, Matrix : Default (MPEG)
      Codec ID : XVID
      Codec ID/Hint : XviD
      Duration : 45mn 55s
      Bit rate : 1 537 Kbps
      Width : 704 pixels
      Height : 400 pixels
      Display aspect ratio : 16:9
      Frame rate : 25.000 fps
      Color space : YUV
      Chroma subsampling : 4:2:0
      Bit depth : 8 bits
      Scan type : Progressive
      Compression mode : Lossy
      Bits/(Pixel*Frame) : 0.218
      Stream size : 505 MiB (92%)
      Writing library : XviD 57
   Audio #1
      ID : 1
      Format : MPEG Audio
      Format version : Version 1
      Format profile : Layer 3
      Codec ID : 55
      Codec ID/Hint : MP3
      Duration : 45mn 55s
      Bit rate mode : Constant
      Bit rate : 128 Kbps
      Channel(s) : 2 channels
      Sampling rate : 48.0 KHz
      Compression mode : Lossy
      Stream size : 42.0 MiB (8%)
      Alignment : Aligned on interleaves
      Interleave, duration : 40 ms (1.00 video frame)
      Interleave, preload duration : 504 ms
      Writing library : LAME3.98r
      Encoding settings : -m s -V 4 -q 2 -lowpass 17 -b 128
Семпл: http://multi-up.com/790667

picpicpicpicpicpicpicpicpicpicpicpic
Для увеличения картинки щелкните мышкой по превью

Этот торрент недоступен для скачивания без регистрации, однако доступен по публичной magnet-ссылке (источники с публичных трекеров). Перед использованием ссылки прочтите, пожалуйста Пользовательское соглашение, а также как можно дольше оставайтесь на раздаче! Для того, чтобы скачать сам торрент-файл (который видит больше источников), а также для того, чтобы поблагодарить релизера, вам необходимо зарегистрироваться. Если регистрироваться лень - вы можете также попробовать скачать релиз по нашим партнерским ссылкам ниже.

[underverse.su].t21326.torrent
Трекер: Зарегистрирован   [ 15.11.2012 16:48 ]  

Статус: проверено (by garry at 15.11.2012 17:33)
Поблагодарили: 1 человек
Тип торрента: публичный - доступные источники с открытых трекеров: 
Размер: 12,9 GB (занимает 2,95 DVDR, для записи нужно 3 болванки DVDR/RW)
 
 
Похожие темы
Форум Тема Автор Торрент Отв. Посл. сооб.
xUSSR сериалы Брат за брата 2 / Серии: 1-24 (24) (Олег Туранский, Олег Филипенко) [2012г, Драма, криминал, SATRip] nemos
0 | 0

6 | 1352

11

23.11.2012 14:16

xUSSR сериалы Брат за брата 3 (1-30 серии из 30) (Олег Туранский, Олег Филипенко) [2014 г., криминал, драма, боевик, SatRip] nemos
111 | 22

1 | 1475

10

03.09.2014 15:01


Яндекс.Метрика powered by Sphinx


В Н И М А Н И Е
Сайт не распространяет и не хранит электронные версии произведений, а лишь бесплатно и без коммерческой выгоды (не требуя взамен платы,
SMS и т.д.) предоставляет доступ к создаваемому пользователями каталогу ссылок на торрент-файлы, которые содержат только списки хеш-сумм.
Убедительная просьба с жалобами обращаться напрямую к пользователю, разместившему торрент файл.

Вверх