Loading...
Error

Звездный крейсер Найденион / Nydenion - Krieg der Kolonien (Джек Мойк) [2010 г., фантастика, HDRip] MVO

Статистика раздачи
Размер:  1,52 GB   |    Зарегистрирован:  4 года   |    Скачан:  84 раза

Полного источника не было: 2 месяца 23 дня

Сидов:  0  |  0 KB/s  ]   Личеров:  0  |  0 KB/s  ]

* - сиды/пиры с внешних источников

   
 
Автор Сообщение

RG NewCinema 

15-Ноя-2012 15:51

Звездный крейсер Найденион / Nydenion - Krieg der Kolonien


Год выпуска: 2010
Жанр: фантастика
Страна: Германия
Режиссер: Джек Мойк
В ролях: Андреас Аренс, Caspar Arnhold, Michael Arnold, Mirjam Barner, Bjorn Bechstein, Boris Belkine, Birgit Blaufus, Rafaela Bonato, Кристина Даль, Кэнтон Стефани, Даль Кэнтон...
Сюжет фильма:
События разворачиваются в далеком будущем. Здесь идет бесконечная война между множеством колоний, которые давно перестали безоговорочно выполнять приказы метрополии и превратились в могущественные государства. Ожесточенное противостояние между ними длится уже более 50 лет, а количество жертв приблизилось к миллиарду. В этом аду летчиком-истребителем работает Рик Уолкер, которому поручают сверхсекретное задание: доставить некую женщину к месту, где состоится очередная серия переговоров о прекращении военных действий…

  • Мировая премьера: 28 апреля 2011

/
Качество видео: HDRip

Продолжительность: 01:30:04
Формат: AVI
Видео: XviD, 720x400, 1965 kbps
Аудио: русский, многоголосый закадровый [профессиональный], AC3 5.1, 448 kbps

Код:

Общее
Полное имя : Zvezdnyj.krejser.Najdenion.2010.HDRip.avi
Формат : AVI
Формат/Информация : Audio Video Interleave
Размер файла : 1,52 Гбайт
Продолжительность : 1 ч. 30 м.
Общий поток : 2422 Кбит/сек
Программа кодирования : VirtualDubModRus 1.5.10.2 (build 2542/release)
Библиотека кодирования : VirtualDubMod build 2542/release

Видео
Идентификатор : 0
Формат : MPEG-4 Visual
Профиль формата : Advanced Simple@L5
Параметр BVOP формата : 2
Параметр QPel формата : Нет
Параметр GMC формата : Без точки перехода
Параметр матрицы формата : Default (H.263)
Идентификатор кодека : XVID
Идентификатор кодека/Подсказка : XviD
Продолжительность : 1 ч. 30 м.
Битрейт : 1965 Кбит/сек
Ширина : 720 пикселей
Высота : 400 пикселей
Соотношение сторон : 16:9
Частота кадров : 25,000 кадров/сек
Цветовое пространство : YUV
Субдискретизация насыщенности : 4:2:0
Битовая глубина : 8 бит
Тип развёртки : Прогрессивная
Метод сжатия : С потерями
Бит/(Пиксели*Кадры) : 0.273
Размер потока : 1,24 Гбайт (81%)
Библиотека кодирования : XviD 63

Аудио
Идентификатор : 1
Формат : AC-3
Формат/Информация : Audio Coding 3
Расширение режима : CM (complete main)
Идентификатор кодека : 2000
Продолжительность : 1 ч. 30 м.
Вид битрейта : Постоянный
Битрейт : 448 Кбит/сек
Каналы : 6 каналов
Расположение каналов : Front: L C R, Side: L R, LFE
Частота : 48,0 КГц
Битовая глубина : 16 бит
Метод сжатия : С потерями
Размер потока : 289 Мбайт (18%)
Выравнивание : Разделение по промежуткам
Продолжительность промежутка : 40 мс. (1,00 видеокадр)
Время предзагрузки промежутка : 500 мс
Семпл: http://sendfile.su/709210

picpicpic
Для увеличения картинки щелкните мышкой по превью

Этот торрент недоступен для скачивания без регистрации, однако доступен по публичной magnet-ссылке (источники с публичных трекеров). Перед использованием ссылки прочтите, пожалуйста Пользовательское соглашение, а также как можно дольше оставайтесь на раздаче! Для того, чтобы скачать сам торрент-файл (который видит больше источников), а также для того, чтобы поблагодарить релизера, вам необходимо зарегистрироваться. Если регистрироваться лень - вы можете также попробовать скачать релиз по нашим партнерским ссылкам ниже.

[underverse.su].t21321.torrent
Трекер: Зарегистрирован   [ 15.11.2012 15:51 ]  

Статус: проверено (by eXtatik at 15.11.2012 16:36)
Поблагодарили: 5 человек
Тип торрента: публичный - доступные источники с открытых трекеров: 
Размер: 1,52 GB (занимает 0,35 DVDR, для записи нужно 1 болванка DVDR/RW)
 
 
Похожие темы
Форум Тема Автор Торрент Отв. Посл. сооб.
Зарубежное кино [DVDRip, Low-Res HDRip, и т.д.] Звездный крейсер: Восстание / Starship: Rising (Нил Джонсон / Neil Johnson) [2014 г., фантастика, боевик, DVDRip] VO (den904) + Original (Eng) 90ytr90
2 | 0

0 | 674

44

11.12.2014 13:52

Зарубежное кино [DVDRip, Low-Res HDRip, и т.д.] Звездный крейсер: Восстание / Starship: Rising (Нил Джонсон / Neil Johnson) [2014 г., фантастика, боевик, DVDRip-AVC] VO (den904) + Original (Eng) + Sub (Rus, Eng) 90ytr90
1 | 0

0 | 841

62

11.12.2014 13:57

Зарубежное кино [DVDRip, Low-Res HDRip, и т.д.] Звёздный крейсер: Апокалипсис / Starship: Apocalypse (Нил Джонсон) [2014 г., фантастика, боевик, WEB-DLRip] DVO makkol
24 | 0

0 | 1114

52

20.03.2016 12:27

Зарубежное кино [HDDVDRip / BDRip / WEB-DL / HDTV 1080/720р] Звездный Крейсер Галактика: Кровь и Хром / Battlestar Galactica: Blood & Chrome (Джонас Пейт) [2012 г., фантастика, боевик, BDRip 720p] MVO Чертёнок
0 | 0

4 | 1434

63

10.02.2013 09:39

Зарубежное кино [HDDVDRip / BDRip / WEB-DL / HDTV 1080/720р] Звёздный крейсер Галактика: Кровь и Хром / Battlestar Galactica: Blood and Chrome (Джонас Пейт / Jonas Pate) [2012 г., фантастика, BDRip 720p] 2 x MVO 90ytr90
3 | 0

0 | 1239

83

09.04.2013 14:08

* Архив Звездный крейсер Галактика: План / Battlestar Galactica: The Plan (2009) DVDRip (Эдвард Джеймс Олмос) [2009 г., фантастика, боевик, драма, приключения, DVDRip] bokalchik

1 | 954

29.08.2010 23:52

Архив Звездный крейсер Галактика (Сезон 1) / Battlestar Galactica (Майкл Раймер, Род Харди) [2004 г., фантастика, боевик, драма, приключения, HD DVDRip] kostyan007
0 | 0

1 | 1194

0

05.11.2011 14:45


Яндекс.Метрика powered by Sphinx


В Н И М А Н И Е
Сайт не распространяет и не хранит электронные версии произведений, а лишь бесплатно и без коммерческой выгоды (не требуя взамен платы,
SMS и т.д.) предоставляет доступ к создаваемому пользователями каталогу ссылок на торрент-файлы, которые содержат только списки хеш-сумм.
Убедительная просьба с жалобами обращаться напрямую к пользователю, разместившему торрент файл.

Вверх