Loading...
Error

Одержимость / Wicker Park (Пол МакГиган) [2004 г., триллер, драма, мелодрама, детектив, HDTVRip-AVC] Dub + Original

Статистика раздачи
Размер:  2,18 GB   |    Зарегистрирован:  4 года   |    Скачан:  21 раз

Полного источника не было: 13 дней

Сидов:  0  |  0 KB/s  ]   Личеров:  0  |  0 KB/s  ]

* - сиды/пиры с внешних источников

   
 
Автор Сообщение

garry Пол:Муж

14-Ноя-2012 23:55

Одержимость / Wicker Park


Год выпуска: 2004
Жанр: триллер, драма, мелодрама, детектив
Страна: США
Режиссер: Пол МакГиган
В ролях: Джош Хартнетт, Роуз Бирн, Мэттью Лиллард, Дайан Крюгер, Кристофер Казинс, Джессика Паре, Власта Врана, Эми Собол, Тед Уиттэлл, Изабель Дос Сантос
Сюжет фильма:
Накануне важной деловой поездки молодой преуспевающий финансист Мэтью замечает в ресторане свою бывшую возлюбленную Лизу, которая таинственным образом исчезла два года назад и страстью к которой он все еще одержим. Забыв обо всем, Мэтью ступает на путь обмана и подозрений, чтобы выследить ее.

Пытаясь решить головоломку с помощью загадочных улик, он случайно знакомится с другой девушкой — ее тоже зовут Лиза и, возможно, ей известна тайна странного исчезновения. Мэтью не предполагает, что любовная одержимость уже сделала его жертвой виртуозной интриги, в которой каждая деталь была предусмотрена с дьявольской точностью…

  • Мировая премьера: 4 июля 2004
  • Российская премьера: 9 декабря 2004, «Пирамида»


Качество видео: HDTVRip-AVC

Продолжительность: 01:54:50
Формат: MKV
Видео: x264, 1016x432, 1888 kbps
Аудио #1: русский, дублированный, AC3 5.1, 384 kbps
Аудио #2: английский, оригинал, AC3 5.1, 448 kbps
Субтитры #1: тип: вшитые отключаемые, русский, формат: SRT
Субтитры #2: тип: вшитые отключаемые, английский, формат: SRT

Код:

Полное имя                               : Wicker Park 2004 x264 HDTVRip-AVC Gambit.mkv
 Формат                                   : Matroska
 Версия формата                           : Version 2
 Размер файла                             : 2,18 Гбайт
 Продолжительность                        : 1 ч. 54 м.
 Общий поток                              : 2721 Кбит/сек
 Дата кодирования                         : UTC 2012-11-14 18:30:09
 Программа кодирования                    : mkvmerge v5.6.0 ('Kenya Kane') built on May 27 2012 16:44:04
 Библиотека кодирования                   : libebml v1.2.3 + libmatroska v1.3.0

Видео
 Идентификатор                            : 1
 Формат                                   : AVC
 Формат/Информация                        : Advanced Video Codec
 Профиль формата                          : High@L4.0
 Параметр CABAC формата                   : Да
 Параметр ReFrames формата                : 10 кадров
 Идентификатор кодека                     : V_MPEG4/ISO/AVC
 Продолжительность                        : 1 ч. 54 м.
 Битрейт                                  : 1888 Кбит/сек
 Ширина                                   : 1016 пикселей
 Высота                                   : 432 пикселя
 Соотношение сторон                       : 2,35:1
 Частота кадров                           : 23,976 кадра/сек
 Цветовое пространство                    : YUV
 Субдискретизация насыщенности            : 4:2:0
 Битовая глубина                          : 8 бит
 Тип развёртки                            : Прогрессивная
 Бит/(Пиксели*Кадры)                      : 0.179
 Размер потока                            : 1,47 Гбайт (67%)
 Заголовок                                : Wicker Park 2004 x264 HDTVRip-AVC Gambit
 Библиотека кодирования                   : x264 core 128 r2216kMod 198a7ea
 Настройки программы                      : cabac=1 / ref=10 / deblock=1:-2:-1 / analyse=0x3:0x133 / me=umh / subme=11 / psy=1 / fade_compensate=0.00 / psy_rd=1.05:0.01 / mixed_ref=1 / me_range=40 / chroma_me=1 / trellis=2 / 8x8dct=1 / cqm=0 / deadzone=21,11 / fast_pskip=0 / chroma_qp_offset=-3 / threads=6 / lookahead_threads=1 / sliced_threads=0 / nr=0 / decimate=0 / interlaced=0 / bluray_compat=0 / constrained_intra=0 / bframes=10 / b_pyramid=2 / b_adapt=2 / b_bias=0 / direct=3 / weightb=1 / open_gop=0 / weightp=2 / keyint=250 / keyint_min=23 / scenecut=40 / intra_refresh=0 / rc=2pass / mbtree=0 / bitrate=1888 / ratetol=1.0 / qcomp=0.60 / qpmin=0 / qpmax=69 / qpstep=4 / cplxblur=20.0 / qblur=0.5 / ip_ratio=1.30 / pb_ratio=1.35 / aq=3:0.80 / zones=158540,165182,q=35
 Язык                                     : English
 Default                                  : Да
 Forced                                   : Нет
 Коэффициенты матрицы                     : BT.709-5, BT.1361, IEC 61966-2-4 709, SMPTE RP177

Аудио #1
 Идентификатор                            : 2
 Формат                                   : AC-3
 Формат/Информация                        : Audio Coding 3
 Расширение режима                        : CM (complete main)
 Параметр Endianness формата              : Big
 Идентификатор кодека                     : A_AC3
 Продолжительность                        : 1 ч. 54 м.
 Вид битрейта                             : Постоянный
 Битрейт                                  : 384 Кбит/сек
 Каналы                                   : 6 каналов
 Расположение каналов                     : Front: L C R, Side: L R, LFE
 Частота                                  : 48,0 КГц
 Битовая глубина                          : 16 бит
 Метод сжатия                             : С потерями
 Размер потока                            : 315 Мбайт (14%)
 Заголовок                                : Dub
 Язык                                     : Russian
 Default                                  : Да
 Forced                                   : Нет

Аудио #2
 Идентификатор                            : 3
 Формат                                   : AC-3
 Формат/Информация                        : Audio Coding 3
 Расширение режима                        : CM (complete main)
 Параметр Endianness формата              : Big
 Идентификатор кодека                     : A_AC3
 Продолжительность                        : 1 ч. 54 м.
 Вид битрейта                             : Постоянный
 Битрейт                                  : 448 Кбит/сек
 Каналы                                   : 6 каналов
 Расположение каналов                     : Front: L C R, Side: L R, LFE
 Частота                                  : 48,0 КГц
 Битовая глубина                          : 16 бит
 Метод сжатия                             : С потерями
 Размер потока                            : 368 Мбайт (16%)
 Заголовок                                : Original (Eng)
 Язык                                     : English
 Default                                  : Нет
 Forced                                   : Нет

Текст #1
 Идентификатор                            : 4
 Формат                                   : UTF-8
 Идентификатор кодека                     : S_TEXT/UTF8
 Идентификатор кодека/Информация          : UTF-8 Plain Text
 Заголовок                                : Rus
 Язык                                     : Russian
 Default                                  : Нет
 Forced                                   : Нет

Текст #2
 Идентификатор                            : 5
 Формат                                   : UTF-8
 Идентификатор кодека                     : S_TEXT/UTF8
 Идентификатор кодека/Информация          : UTF-8 Plain Text
 Заголовок                                : Eng
 Язык                                     : English
 Default                                  : Нет
 Forced                                   : Нет
Семпл: http://multi-up.com/790319

Релиз группы:

picpicpic
Для увеличения картинки щелкните мышкой по превью

Этот торрент недоступен для скачивания без регистрации, однако доступен по публичной magnet-ссылке (источники с публичных трекеров). Перед использованием ссылки прочтите, пожалуйста Пользовательское соглашение, а также как можно дольше оставайтесь на раздаче! Для того, чтобы скачать сам торрент-файл (который видит больше источников), а также для того, чтобы поблагодарить релизера, вам необходимо зарегистрироваться. Если регистрироваться лень - вы можете также попробовать скачать релиз по нашим партнерским ссылкам ниже.

[underverse.su].t21310.torrent
Трекер: Зарегистрирован   [ 14.11.2012 23:55 ]  

Статус: проверено (by garry at 14.11.2012 23:56)
Поблагодарили: 1 человек
Тип торрента: публичный - доступные источники с открытых трекеров: 
Размер: 2,18 GB (занимает 1/2 DVDR, для записи нужно 1 болванка DVDR/RW)
 
 
Похожие темы
Форум Тема Автор Торрент Отв. Посл. сооб.
Зарубежное кино [DVDRip, Low-Res HDRip, и т.д.] Одержимость вуду / Voodoo Possession (Уолтер Бохолст) [2013 г., Ужасы, Драма, Детектив, HDRip] DVO (RUS, Влад & Снежинка) Ведьмочка
16 | 2

0 | 494

10

27.08.2014 07:35

T Зарубежное кино [DVDRip, Low-Res HDRip, и т.д.] Одержимость Майкла Кинга / The Possession of Michael King (Дэвид Юнг) [2014 г., Ужасы, HDRip] Dub (RUS) + Original (ENG) Звук с CAMRip Ведьмочка
80 | 7

0 | 854

30

07.09.2014 20:35

Зарубежное кино [DVDRip, Low-Res HDRip, и т.д.] Одержимость Майкла Кинга / The Possession of Michael King (Дэвид Юнг) [2014 г., Ужасы, BDRip] DVO (RUS, lord666 & Miori) Ведьмочка
16 | 1

0 | 714

18

06.10.2014 04:35

Зарубежное кино [DVDRip, Low-Res HDRip, и т.д.] Одержимость / The Taking (Адам Робител) [2014 г., Ужасы, Триллер, HDRip] VO (RUS, П. Морозов) Ведьмочка
4 | 0

0 | 13768

16

25.12.2014 09:41

T Зарубежное кино [DVDRip, Low-Res HDRip, и т.д.] Одержимость Майкла Кинга / The Possession of Michael King (Дэвид Юнг) [2014 г., Ужасы, HDRip] Dub (RUS, Чистый звук) Ведьмочка
7 | 0

0 | 460

7

01.01.2015 05:37

T Зарубежное кино [DVDRip, Low-Res HDRip, и т.д.] Одержимость Майкла Кинга / The Possession of Michael King (Дэвид Юнг / David Jung) [2014 г., ужасы, BDRip-AVC] Dub (чистый звук) + Original (Eng) 90ytr90
3 | 0

0 | 397

5

02.01.2015 08:14

Зарубежное кино [DVDRip, Low-Res HDRip, и т.д.] Одержимость Майкла Кинга / The Possession of Michael King (Дэвид Юнг / David Jung) [2014 г., ужасы, BDRip-AVC] AVO (Дольский) + Original (Eng) 90ytr90
6 | 0

0 | 335

0

02.01.2015 08:23

Зарубежное кино [DVDRip, Low-Res HDRip, и т.д.] Одержимость Майкла Кинга / The Possession of Michael King (Дэвид Юнг / David Jung) [2014 г., ужасы, HDRip] AVO (Дольский) 90ytr90
17 | 0

0 | 393

3

02.01.2015 08:35

Зарубежное кино [DVDRip, Low-Res HDRip, и т.д.] Одержимость / Whiplash (Дамьен Шазель / Damien Chazelle) [2014 г., драма, HDRip] MVO 90ytr90
8 | 0

0 | 292

17

06.02.2015 06:42

Зарубежное кино [DVDRip, Low-Res HDRip, и т.д.] Одержимость / Whiplash (Дамьен Шазель / Damien Chazelle) [2014 г., драма, HDRip] MVO + Original (Eng) 90ytr90
2 | 0

0 | 280

14

06.02.2015 06:55

onenot Пол:Муж

16-Ноя-2012 17:30

очень хороший фильм)

Яндекс.Метрика powered by Sphinx


В Н И М А Н И Е
Сайт не распространяет и не хранит электронные версии произведений, а лишь бесплатно и без коммерческой выгоды (не требуя взамен платы,
SMS и т.д.) предоставляет доступ к создаваемому пользователями каталогу ссылок на торрент-файлы, которые содержат только списки хеш-сумм.
Убедительная просьба с жалобами обращаться напрямую к пользователю, разместившему торрент файл.

Вверх