Loading...
Error

Иерихон / Jericho / Сезон: 2, серии: 1-7 (Гай Норман Би, Сэнфорд Букставер, Джеймс Уитмор мл.) [2008 г., фантастика, боевик, драма, детектив, HDTVRip] MVO

Статистика раздачи
Размер:  2,7 GB   |    Зарегистрирован:  4 года   |    Скачан:  8 раз

Полного источника не было: 2 года 5 месяцев

Сидов:  0  |  0 KB/s  ]   Личеров:  0  |  0 KB/s  ]

* - сиды/пиры с внешних источников

   
 
Автор Сообщение

garry Пол:Муж

12-Ноя-2012 22:57

Иерихон / Jericho


Год выпуска: 2008 (2 сезон)
Жанр: фантастика, боевик, драма, детектив
Страна: США
Режиссер: Гай Норман Би, Сэнфорд Букставер, Джеймс Уитмор мл.
В ролях: Скит Ульрих, Ленни Джеймс, Эшли Скотт, Кеннет Митчел, Брэд Бейер, Эйприл Паркер, Алисия Коппола, Памела Рид, Роберт Дж. Стефенсон, Джералд МакРэйни
Сюжет фильма:
Драма о том, что случается, когда ядерный атомный гриб внезапно покажется на горизонте, погружая жителей маленького, мирного Канзасского города в хаос. Оставляя их полностью изолированными, заставляя задавать себе вопрос: «Являются ли они единственными американцами, оставшиеся в живых?».

Опасение, относительно неизвестности, приближает жителей Иерихон к социальной, психологической и физический катастрофе. Когда все средства коммуникации и власть исчезли, общество города начинает трещать по швам. Террор, гнев и беспорядок, открывает в некоторых её жителях, самые худшие качества…

Качество видео: HDTVRip

Продолжительность: ~00:44:00 x 7
Формат: avi
Видео: XviD, 576x320 (e1-e3); 624x352 (e4-e7); 672x384 (e7 альтернативный), ~930 kbps
Аудио: русский, многоголосый закадровый [профессиональный, LostFilm], MP3 2.0, 128 kbps

Код:

General
Complete name                    : D:\Downloads\Torrents\Jericho 2 - LostFilm.TV\Jericho.s02e01.rus.LostFilm.TV.avi
Format                           : AVI
Format/Info                      : Audio Video Interleave
File size                        : 340 MiB
Duration                         : 44mn 0s
Overall bit rate                 : 1 082 Kbps
Writing application              : Nandub v1.0rc2
Writing library                  : Nandub build 1853/release

Video
ID                               : 0
Format                           : MPEG-4 Visual
Format profile                   : Streaming Video@L1
Format settings, BVOP            : Yes
Format settings, QPel            : No
Format settings, GMC             : No warppoints
Format settings, Matrix          : Default (MPEG)
Muxing mode                      : Packed bitstream
Codec ID                         : XVID
Codec ID/Hint                    : XviD
Duration                         : 44mn 0s
Bit rate                         : 941 Kbps
Width                            : 576 pixels
Height                           : 320 pixels
Display aspect ratio             : 16/9
Frame rate                       : 23.976 fps
Resolution                       : 24 bits
Colorimetry                      : 4:2:0
Scan type                        : Progressive
Bits/(Pixel*Frame)               : 0.213
Stream size                      : 296 MiB (87%)
Writing library                  : XviD 1.2.0.dev47 (UTC 2006-11-01)

Audio
ID                               : 1
Format                           : MPEG Audio
Format version                   : Version 1
Format profile                   : Layer 3
Codec ID                         : 55
Codec ID/Hint                    : MP3
Duration                         : 44mn 0s
Bit rate mode                    : Constant
Bit rate                         : 128 Kbps
Channel(s)                       : 2 channels
Sampling rate                    : 48.0 KHz
Resolution                       : 16 bits
Stream size                      : 40.3 MiB (12%)
Alignment                        : Aligned on interleaves
Interleave, duration             : 24 ms (0.58 video frame)
Interleave, preload duration     : 480 ms

Семпл: http://multi-up.com/789662

Релиз группы:

picpicpic
Для увеличения картинки щелкните мышкой по превью

Этот торрент недоступен для скачивания без регистрации, однако доступен по публичной magnet-ссылке (источники с публичных трекеров). Перед использованием ссылки прочтите, пожалуйста Пользовательское соглашение, а также как можно дольше оставайтесь на раздаче! Для того, чтобы скачать сам торрент-файл (который видит больше источников), а также для того, чтобы поблагодарить релизера, вам необходимо зарегистрироваться. Если регистрироваться лень - вы можете также попробовать скачать релиз по нашим партнерским ссылкам ниже.

[underverse.su].t21268.torrent
Трекер: Зарегистрирован   [ 12.11.2012 22:57 ]  

Статус: проверено (by garry at 12.11.2012 22:57)
Поблагодарили: пока никто не поблагодарил...
Тип торрента: публичный - доступные источники с открытых трекеров: 
Размер: 2,7 GB (занимает 0,62 DVDR, для записи нужно 1 болванка DVDR/RW)
 
 
Похожие темы
Форум Тема Автор Торрент Отв. Посл. сооб.
Зарубежные сериалы Иерихон / Jericho / Сезон: 1, серии: 1-22 (Гай Норман Би, Сэнфорд Букставер, Джеймс Уитмор мл.) [2006-2007 г., фантастика, боевик, драма, детектив, DVDRip] MVO + Original garry
2 | 0

0 | 986

15

12.11.2012 22:37


Яндекс.Метрика powered by Sphinx


В Н И М А Н И Е
Сайт не распространяет и не хранит электронные версии произведений, а лишь бесплатно и без коммерческой выгоды (не требуя взамен платы,
SMS и т.д.) предоставляет доступ к создаваемому пользователями каталогу ссылок на торрент-файлы, которые содержат только списки хеш-сумм.
Убедительная просьба с жалобами обращаться напрямую к пользователю, разместившему торрент файл.

Вверх