Loading...
Error

Иерихон / Jericho / Сезон: 1, серии: 1-22 (Гай Норман Би, Сэнфорд Букставер, Джеймс Уитмор мл.) [2006-2007 г., фантастика, боевик, драма, детектив, DVDRip] MVO + Original

Статистика раздачи
Размер:  8,74 GB   |    Зарегистрирован:  4 года   |    Скачан:  15 раз

Полного источника не было: 1 год 7 месяцев

Сидов:  0  |  0 KB/s  ]   Личеров:  0  |  0 KB/s  ]

* - сиды/пиры с внешних источников

   
 
Автор Сообщение

garry Пол:Муж

12-Ноя-2012 22:37

Иерихон / Jericho


Год выпуска: 2006-2007 (1 сезон)
Жанр: фантастика, боевик, драма, детектив
Страна: США
Режиссер: Гай Норман Би, Сэнфорд Букставер, Джеймс Уитмор мл.
В ролях: Скит Ульрих, Ленни Джеймс, Эшли Скотт, Кеннет Митчел, Брэд Бейер, Эйприл Паркер, Алисия Коппола, Памела Рид, Роберт Дж. Стефенсон, Джералд МакРэйни
Сюжет фильма:
Драма о том, что случается, когда ядерный атомный гриб внезапно покажется на горизонте, погружая жителей маленького, мирного Канзасского города в хаос. Оставляя их полностью изолированными, заставляя задавать себе вопрос: «Являются ли они единственными американцами, оставшиеся в живых?».

Опасение, относительно неизвестности, приближает жителей Иерихон к социальной, психологической и физический катастрофе. Когда все средства коммуникации и власть исчезли, общество города начинает трещать по швам. Террор, гнев и беспорядок, открывает в некоторых её жителях, самые худшие качества…

Качество видео: DVDRip

Продолжительность: ~00:40:00 x 22
Формат: AVI
Видео: XviD, 624x352, 1134 kbps
Аудио #1: русский, многоголосый закадровый [профессиональный, ДТВ], MP3 2.0, 128 kbps
Аудио #2: английский, оригинал, MP3 2.0, 128 kbps

Код:

General
Complete name                            : D:\Downloads\Torrents\Jericho\jericho.s01.e01.dvdrip.rus.eng.*другой трекер*.avi
Format                                   : AVI
Format/Info                              : Audio Video Interleave
File size                                : 407 MiB
Duration                                 : 40mn 32s
Overall bit rate                         : 1 405 Kbps
Writing application                      : VirtualDubMod 1.5.10.2 (build 2542/release)
Writing library                          : VirtualDubMod build 2542/release

Video
ID                                       : 0
Format                                   : MPEG-4 Visual
Format profile                           : Advanced Simple@L5
Format settings, BVOP                    : 2
Format settings, QPel                    : No
Format settings, GMC                     : No warppoints
Format settings, Matrix                  : Default (H.263)
Muxing mode                              : Packed bitstream
Codec ID                                 : XVID
Codec ID/Hint                            : XviD
Duration                                 : 40mn 32s
Bit rate                                 : 1 135 Kbps
Width                                    : 624 pixels
Height                                   : 352 pixels
Display aspect ratio                     : 16:9
Frame rate                               : 23.976 fps
Color space                              : YUV
Chroma subsampling                       : 4:2:0
Bit depth                                : 8 bits
Scan type                                : Progressive
Compression mode                         : Lossy
Bits/(Pixel*Frame)                       : 0.216
Stream size                              : 329 MiB (81%)
Writing library                          : XviD 1.1.2 (UTC 2006-11-01)

Audio #1
ID                                       : 1
Format                                   : MPEG Audio
Format version                           : Version 1
Format profile                           : Layer 3
Mode                                     : Joint stereo
Mode extension                           : MS Stereo
Codec ID                                 : 55
Codec ID/Hint                            : MP3
Duration                                 : 40mn 32s
Bit rate mode                            : Constant
Bit rate                                 : 128 Kbps
Channel(s)                               : 2 channels
Sampling rate                            : 48.0 KHz
Compression mode                         : Lossy
Stream size                              : 37.1 MiB (9%)
Alignment                                : Aligned on interleaves
Interleave, duration                     : 42 ms (1.00 video frame)
Interleave, preload duration             : 504 ms

Audio #2
ID                                       : 2
Format                                   : MPEG Audio
Format version                           : Version 1
Format profile                           : Layer 3
Mode                                     : Joint stereo
Mode extension                           : MS Stereo
Codec ID                                 : 55
Codec ID/Hint                            : MP3
Duration                                 : 40mn 32s
Bit rate mode                            : Constant
Bit rate                                 : 128 Kbps
Channel(s)                               : 2 channels
Sampling rate                            : 48.0 KHz
Compression mode                         : Lossy
Stream size                              : 37.1 MiB (9%)
Alignment                                : Aligned on interleaves
Interleave, duration                     : 42 ms (1.00 video frame)
Interleave, preload duration             : 504 ms
Семпл: http://multi-up.com/789660

Релиз группы:

picpicpic
Для увеличения картинки щелкните мышкой по превью

Этот торрент недоступен для скачивания без регистрации, однако доступен по публичной magnet-ссылке (источники с публичных трекеров). Перед использованием ссылки прочтите, пожалуйста Пользовательское соглашение, а также как можно дольше оставайтесь на раздаче! Для того, чтобы скачать сам торрент-файл (который видит больше источников), а также для того, чтобы поблагодарить релизера, вам необходимо зарегистрироваться. Если регистрироваться лень - вы можете также попробовать скачать релиз по нашим партнерским ссылкам ниже.

[underverse.su].t21267.torrent
Трекер: Зарегистрирован   [ 12.11.2012 22:37 ]  

Статус: проверено (by garry at 12.11.2012 22:38)
Поблагодарили: 2 человека
Тип торрента: публичный - доступные источники с открытых трекеров: 
Размер: 8,74 GB (занимает 2 DVDR, для записи нужно 2 болванки DVDR/RW)
 
 
Похожие темы
Форум Тема Автор Торрент Отв. Посл. сооб.
Зарубежные сериалы Иерихон / Jericho / Сезон: 2, серии: 1-7 (Гай Норман Би, Сэнфорд Букставер, Джеймс Уитмор мл.) [2008 г., фантастика, боевик, драма, детектив, HDTVRip] MVO garry
3 | 0

0 | 1030

8

12.11.2012 22:57


Яндекс.Метрика powered by Sphinx


В Н И М А Н И Е
Сайт не распространяет и не хранит электронные версии произведений, а лишь бесплатно и без коммерческой выгоды (не требуя взамен платы,
SMS и т.д.) предоставляет доступ к создаваемому пользователями каталогу ссылок на торрент-файлы, которые содержат только списки хеш-сумм.
Убедительная просьба с жалобами обращаться напрямую к пользователю, разместившему торрент файл.

Вверх