Loading...
Error

Рыжий пес / Red Dog (Крив Стендерс) [2011 г., драма, комедия, семейный, BDRip-AVC] MVO + DVO + Original

Статистика раздачи
Размер:  2,81 GB   |    Зарегистрирован:  4 года   |    Скачан:  10 раз

Полного источника не было: 2 дня 5 часов

Сидов:  0  |  0 KB/s  ]   Личеров:  0  |  0 KB/s  ]

* - сиды/пиры с внешних источников

   
 
Автор Сообщение

garry Пол:Муж

11-Ноя-2012 23:03

Рыжий пес / Red Dog


Год выпуска: 2011
Жанр: драма, комедия, семейный
Страна: Австралия
Режиссер: Крив Стендерс
В ролях: Рэйчел Тейлор, Джош Лукас, Ноа Тейлор, Киша Касл-Хьюз, Имон Фэррен, Люк Форд, Билл Хантер, Тиффани Линдолл-Найт, Пол Блэкуелл, Алекс Уильямсон
Сюжет фильма:
В далеком шахтерском поселке, где живут суровые и не слишком общительные люди, однажды появляется энергичный рыжий пес из породы келпи. Только ему под силу расшевелить провинциальное сонное царство. Рыжий не подчиняется никому, но его любят все. С помощью неутомимого пса многим поселенцам суждено обрести друзей, счастье, надежду и радость. А некоторым — найти любовь всей своей жизни.

  • Мировая премьера: 4 августа 2011


Качество видео: BDRip-AVC

Продолжительность: 01:32:18
Формат: MKV
Видео: x264, 1194x508, 3270 kbps
Аудио #1: русский, многоголосый закадровый [профессиональный], AC3 5.1, 448 kbps
Аудио #2: русский, двухголосый закадровый [профессиональный, НТВ+], AC3 2.0, 192 kbps
Аудио #3: английский, оригинал, AC3 5.1, 448 kbps
Субтитры #1: тип: вшитые отключаемые, русский, формат: SRT
Субтитры #2: тип: вшитые отключаемые, английский, формат: SRT

Код:

General
 Complete name : D:\...\Red.Dog.2011.BDRip.x264.AC3.Rus.Eng-E76.mkv
 Format : Matroska
 Format version : Version 2
 File size : 2.81 GiB
 Duration : 1h 32mn
 Overall bit rate : 4 365 Kbps
 Movie name : Red.Dog.2011.BDRip.x264.AC3.Rus.Eng-E76
 Encoded date : UTC 2012-11-11 10:32:02
 Writing application : mkvmerge v5.6.0 ('Kenya Kane') built on May 27 2012 16:44:04
 Writing library : libebml v1.2.3 + libmatroska v1.3.0

Video
 ID : 1
 Format : AVC
 Format/Info : Advanced Video Codec
 Format profile : High@L4.1
 Format settings, CABAC : Yes
 Format settings, ReFrames : 12 frames
 Codec ID : V_MPEG4/ISO/AVC
 Duration : 1h 32mn
 Bit rate : 3 190 Kbps
 Width : 1 194 pixels
 Height : 508 pixels
 Display aspect ratio : 2.35:1
 Frame rate mode : Constant
 Frame rate : 23.976 fps
 Color space : YUV
 Chroma subsampling : 4:2:0
 Bit depth : 8 bits
 Scan type : Progressive
 Bits/(Pixel*Frame) : 0.219
 Stream size : 2.06 GiB (73%)
 Title : Encode by Enclave76
 Writing library : x264 core 128 r2216kMod 198a7ea
 Encoding settings : cabac=1 / ref=12 / deblock=1:-3:-3 / analyse=0x3:0x113 / me=umh / subme=11 / psy=1 / fade_compensate=0.00 / psy_rd=1.00:0.00 / mixed_ref=1 / me_range=64 / chroma_me=1 / trellis=2 / 8x8dct=1 / cqm=0 / deadzone=21,11 / fast_pskip=1 / chroma_qp_offset=-2 / threads=6 / lookahead_threads=1 / sliced_threads=0 / nr=0 / decimate=1 / interlaced=0 / bluray_compat=0 / constrained_intra=0 / bframes=11 / b_pyramid=2 / b_adapt=2 / b_bias=0 / direct=1 / weightb=1 / open_gop=0 / weightp=2 / keyint=240 / keyint_min=23 / scenecut=40 / intra_refresh=0 / rc_lookahead=80 / rc=crf / mbtree=1 / crf=17.7000 / qcomp=0.70 / qpmin=0 / qpmax=69 / qpstep=4 / vbv_maxrate=50000 / vbv_bufsize=62500 / crf_max=0.0 / nal_hrd=none / ip_ratio=1.40 / aq=1:1.00 / zones=125120,132782,q=30
 Language : English
 Default : No
 Forced : No
 Matrix coefficients : BT.709

Audio #1
 ID : 2
 Format : AC-3
 Format/Info : Audio Coding 3
 Mode extension : CM (complete main)
 Format settings, Endianness : Big
 Codec ID : A_AC3
 Duration : 1h 32mn
 Bit rate mode : Constant
 Bit rate : 448 Kbps
 Channel(s) : 6 channels
 Channel positions : Front: L C R, Side: L R, LFE
 Sampling rate : 48.0 KHz
 Bit depth : 16 bits
 Compression mode : Lossy
 Stream size : 296 MiB (10%)
 Title : MVO
 Language : Russian
 Default : Yes
 Forced : No

Audio #2
 ID : 3
 Format : AC-3
 Format/Info : Audio Coding 3
 Mode extension : CM (complete main)
 Format settings, Endianness : Big
 Codec ID : A_AC3
 Duration : 1h 32mn
 Bit rate mode : Constant
 Bit rate : 192 Kbps
 Channel(s) : 2 channels
 Channel positions : Front: L R
 Sampling rate : 48.0 KHz
 Bit depth : 16 bits
 Compression mode : Lossy
 Stream size : 127 MiB (4%)
 Title : DVO NTV+
 Language : Russian
 Default : No
 Forced : No

Audio #3
 ID : 4
 Format : AC-3
 Format/Info : Audio Coding 3
 Mode extension : CM (complete main)
 Format settings, Endianness : Big
 Codec ID : A_AC3
 Duration : 1h 32mn
 Bit rate mode : Constant
 Bit rate : 448 Kbps
 Channel(s) : 6 channels
 Channel positions : Front: L C R, Side: L R, LFE
 Sampling rate : 48.0 KHz
 Bit depth : 16 bits
 Compression mode : Lossy
 Stream size : 296 MiB (10%)
 Title : Original
 Language : English
 Default : No
 Forced : No

Text #1
 ID : 5
 Format : UTF-8
 Codec ID : S_TEXT/UTF8
 Codec ID/Info : UTF-8 Plain Text
 Language : Russian
 Default : No
 Forced : No

Text #2
 ID : 6
 Format : UTF-8
 Codec ID : S_TEXT/UTF8
 Codec ID/Info : UTF-8 Plain Text
 Language : English
 Default : No
 Forced : No

Menu
 00:00:00.000 : en:00:00:00.000
 00:07:51.513 : en:00:07:51.513
 00:13:53.207 : en:00:13:53.207
 00:17:25.670 : en:00:17:25.670
 00:25:11.468 : en:00:25:11.468
 00:32:24.234 : en:00:32:24.234
 00:39:14.269 : en:00:39:14.269
 00:43:41.953 : en:00:43:41.953
 00:47:05.531 : en:00:47:05.531
 00:51:35.467 : en:00:51:35.467
 00:57:20.979 : en:00:57:20.979
 01:04:03.548 : en:01:04:03.548
 01:10:21.134 : en:01:10:21.134
 01:18:39.548 : en:01:18:39.548
 01:24:07.417 : en:01:24:07.417
 01:26:48.995 : en:01:26:48.995
Семпл: http://multi-up.com/788966

Релиз группы:

picpicpic
Для увеличения картинки щелкните мышкой по превью

Этот торрент недоступен для скачивания без регистрации, однако доступен по публичной magnet-ссылке (источники с публичных трекеров). Перед использованием ссылки прочтите, пожалуйста Пользовательское соглашение, а также как можно дольше оставайтесь на раздаче! Для того, чтобы скачать сам торрент-файл (который видит больше источников), а также для того, чтобы поблагодарить релизера, вам необходимо зарегистрироваться. Если регистрироваться лень - вы можете также попробовать скачать релиз по нашим партнерским ссылкам ниже.

[underverse.su].t21246.torrent
Трекер: Зарегистрирован   [ 11.11.2012 23:03 ]  

Статус: проверено (by Паукан at 12.11.2012 07:08)
Поблагодарили: 2 человека
Тип торрента: публичный - доступные источники с открытых трекеров: 
Размер: 2,81 GB (занимает 0,64 DVDR, для записи нужно 1 болванка DVDR/RW)
 
 
Похожие темы
Форум Тема Автор Торрент Отв. Посл. сооб.
Зарубежное кино [DVDRip, Low-Res HDRip, и т.д.] Рыжий пес / Red Dog (Крив Стендерс / Kriv Stenders ) [2011 г., драма, комедия, семейный , HDRip] P.O.C.O.X.A
0 | 0

7 | 705

11

22.03.2012 11:12

Зарубежное кино [DVDRip, Low-Res HDRip, и т.д.] Рыжий пес / Red Dog (Крив Стендерс) [2011, драма, комедия, семейный, BDRip-AVC] MVO + DVO + Original (Eng) + Sub (Rus, Eng) Garnett
0 | 0

0 | 1086

8

02.01.2013 14:01


Яндекс.Метрика powered by Sphinx


В Н И М А Н И Е
Сайт не распространяет и не хранит электронные версии произведений, а лишь бесплатно и без коммерческой выгоды (не требуя взамен платы,
SMS и т.д.) предоставляет доступ к создаваемому пользователями каталогу ссылок на торрент-файлы, которые содержат только списки хеш-сумм.
Убедительная просьба с жалобами обращаться напрямую к пользователю, разместившему торрент файл.

Вверх