Loading...
Error

Девять ярдов / The Whole Nine Yards (Джонатан Линн) [2000 г., комедия, криминал, HDTVRip-AVC] Dub + Original + MVO + 2xAVO

Статистика раздачи
Размер:  3,84 GB   |    Зарегистрирован:  4 года   |    Скачан:  9 раз

Полного источника не было: 4 дня

Сидов:  0  |  0 KB/s  ]   Личеров:  0  |  0 KB/s  ]

* - сиды/пиры с внешних источников

   
 
Автор Сообщение

garry Пол:Муж

11-Ноя-2012 22:57

Девять ярдов / The Whole Nine Yards


Год выпуска: 2000
Жанр: комедия, криминал
Страна: США
Режиссер: Джонатан Линн
В ролях: Брюс Уиллис, Мэттью Перри, Аманда Пит, Наташа Хенстридж, Розанна Аркетт, Майкл Кларк Дункан, Кевин Поллак, Харланд Уильямс, Кармен Ферланд, Серж Кристианссенс
Сюжет фильма:
Николас Озерански — для друзей просто Оз — вел спокойную, размеренную жизнь. Он был неплохим дантистом, жил в престижном пригороде Монреаля и мучился со стервой — женой, от которой никак не мог избавиться. Знакомство с новым соседом положило этой жизни конец раз и навсегда…

Джимми Тюльпан был профессиональным убийцей в клане чикагского мафиози Ласло Гоголака. «Кинув» своего босса на десять миллионов долларов, обаяшка Джимми переехал в тихий канадский пригород, чтобы спокойно пожить на заработанные нелегким трудом денежки. Но тут в его планы самым коварным образом вмешалась жена Николаса Софи.

Она решила сдать Джимми его бывшему боссу, который назначил за голову своего непутевого наемника огромное вознаграждение. Решив, что, получив деньги, жена все-таки отстанет от него, Оз отправился в Чикаго… Казалось, Софи просчитала все. Но тщательно разработанный план дал сбой, стоило Озу бросить один взгляд на Синтию, жену Джимми Тюльпана. Надо сказать, что красавица ответила ему такой же молниеносной любовью! Недолго думая, Софи рассказала Джимми о цели поездки своего супруга и… наняла киллера, чтобы прикончить своего неверного супруга.

  • Мировая премьера: 17 февраля 2000
  • Российская премьера: 19 мая 2000


Качество видео: HDTVRip-AVC

Продолжительность: 01:38:49
Формат: MKV
Видео: x264, 1136x640, 3322 kbps
Аудио #1: русский, дублированный, AC3 5.1, 448 kbps
Аудио #2: английский, оригинал, AC3 5.1, 448 kbps
Аудио #3: русский, многоголосый закадровый [профессиональный,], AC3 5.1, 448 kbps (отдельно)
Аудио #4: русский, одноголосый закадровый [авторский, Гаврилов], AC3 5.1, 448 kbps (отдельно)
Аудио #5: русский, одноголосый закадровый [авторский, Визгунов], AC3 5.1, 448 kbps (отдельно)
Субтитры #1: тип: вшитые отключаемые, русский, формат: SRT
Субтитры #2: тип: вшитые отключаемые, английский, формат: SRT

Код:

General
 Unique ID : 242819983510865139636892470351517863082 (0xB6AD6D7FF8598178AD5C06AF111A4CAA)
 Complete name : F:\FILMS\___ - R - ___\The Whole Nine Yards\The Whole Nine Yards.mkv
 Format : Matroska
 Format version : Version 2
 File size : 2.91 GiB
 Duration : 1h 38mn
 Overall bit rate : 4 220 Kbps
 Encoded date : UTC 2012-11-07 15:54:49
 Writing application : mkvmerge v5.6.0 ('Kenya Kane') built on May 27 2012 16:44:04
 Writing library : libebml v1.2.3 + libmatroska v1.3.0

Video
 ID : 1
 Format : AVC
 Format/Info : Advanced Video Codec
 Format profile : High@L4.1
 Format settings, CABAC : Yes
 Format settings, ReFrames : 11 frames
 Codec ID : V_MPEG4/ISO/AVC
 Duration : 1h 38mn
 Bit rate : 3 322 Kbps
 Width : 1 136 pixels
 Height : 640 pixels
 Display aspect ratio : 16:9
 Frame rate : 23.976 fps
 Color space : YUV
 Chroma subsampling : 4:2:0
 Bit depth : 8 bits
 Scan type : Progressive
 Bits/(Pixel*Frame) : 0.191
 Stream size : 2.24 GiB (77%)
 Title : AVC 1136x640@23.976 fps ~3322 kBit/s 2-pass High 4.1
 Writing library : x264 core 122 r2184bm 5c85e0a
 Encoding settings : cabac=1 / ref=11 / deblock=1:-2:-2 / analyse=0x3:0x133 / me=umh / subme=10 / psy=1 / psy_rd=0.90:0.01 / mixed_ref=1 / me_range=48 / chroma_me=1 / trellis=2 / 8x8dct=1 / cqm=0 / deadzone=21,11 / fast_pskip=0 / chroma_qp_offset=-3 / threads=6 / sliced_threads=0 / nr=0 / decimate=0 / interlaced=0 / bluray_compat=0 / constrained_intra=0 / bframes=10 / b_pyramid=2 / b_adapt=2 / b_bias=0 / direct=3 / weightb=1 / open_gop=0 / weightp=2 / keyint=250 / keyint_min=23 / scenecut=40 / intra_refresh=0 / rc=2pass / mbtree=0 / bitrate=3322 / ratetol=1.0 / qcomp=0.90 / qpmin=0 / qpmax=69 / qpstep=4 / cplxblur=20.0 / qblur=0.5 / ip_ratio=1.40 / pb_ratio=1.35 / aq=2:0.90
 Language : English
 Default : Yes
 Forced : No

Audio #1
 ID : 2
 Format : AC-3
 Format/Info : Audio Coding 3
 Mode extension : CM (complete main)
 Format settings, Endianness : Big
 Codec ID : A_AC3
 Duration : 1h 38mn
 Bit rate mode : Constant
 Bit rate : 448 Kbps
 Channel(s) : 6 channels
 Channel positions : Front: L C R, Side: L R, LFE
 Sampling rate : 48.0 KHz
 Bit depth : 16 bits
 Compression mode : Lossy
 Stream size : 317 MiB (11%)
 Title : Дубляж AC3 448 kBit/s 48 kHz 5.1 DD
 Language : Russian
 Default : Yes
 Forced : No

Audio #2
 ID : 3
 Format : AC-3
 Format/Info : Audio Coding 3
 Mode extension : CM (complete main)
 Format settings, Endianness : Big
 Codec ID : A_AC3
 Duration : 1h 38mn
 Bit rate mode : Constant
 Bit rate : 448 Kbps
 Channel(s) : 6 channels
 Channel positions : Front: L C R, Side: L R, LFE
 Sampling rate : 48.0 KHz
 Bit depth : 16 bits
 Compression mode : Lossy
 Stream size : 317 MiB (11%)
 Title : English AC3 448 kBit/s 48 kHz 5.1 DD
 Language : English
 Default : No
 Forced : No

Text #1
 ID : 4
 Format : UTF-8
 Codec ID : S_TEXT/UTF8
 Codec ID/Info : UTF-8 Plain Text
 Language : Russian
 Default : No
 Forced : No

Text #2
 ID : 5
 Format : UTF-8
 Codec ID : S_TEXT/UTF8
 Codec ID/Info : UTF-8 Plain Text
 Language : English
 Default : No
 Forced : No
Семпл: http://narod.ru/disk/63416123001.059486d7947ec68301796b277d81f05f/The%20Whole%20Nine%20Yards%20(1)-002.mkv.html

Релиз группы:

picpicpic
Для увеличения картинки щелкните мышкой по превью

Этот торрент недоступен для скачивания без регистрации, однако доступен по публичной magnet-ссылке (источники с публичных трекеров). Перед использованием ссылки прочтите, пожалуйста Пользовательское соглашение, а также как можно дольше оставайтесь на раздаче! Для того, чтобы скачать сам торрент-файл (который видит больше источников), а также для того, чтобы поблагодарить релизера, вам необходимо зарегистрироваться. Если регистрироваться лень - вы можете также попробовать скачать релиз по нашим партнерским ссылкам ниже.

[underverse.su].t21245.torrent
Трекер: Зарегистрирован   [ 11.11.2012 22:57 ]  

Статус: проверено (by Паукан at 12.11.2012 07:19)
Поблагодарили: пока никто не поблагодарил...
Тип торрента: публичный - доступные источники с открытых трекеров: 
Размер: 3,84 GB (занимает 0,88 DVDR, для записи нужно 1 болванка DVDR/RW)
 
 

Яндекс.Метрика powered by Sphinx


В Н И М А Н И Е
Сайт не распространяет и не хранит электронные версии произведений, а лишь бесплатно и без коммерческой выгоды (не требуя взамен платы,
SMS и т.д.) предоставляет доступ к создаваемому пользователями каталогу ссылок на торрент-файлы, которые содержат только списки хеш-сумм.
Убедительная просьба с жалобами обращаться напрямую к пользователю, разместившему торрент файл.

Вверх